Karfagen - Birds of Passage (2020) [] | Symphonic Prog / Progressive Rock

Нові коментарі

Нова тема   Відповісти
Автор Повідомлення
kolpavel 
VIP


З нами з: 04.05.14
Востаннє: 07.08.20
Повідомлень: 1315

2020-01-08 22:29  
Karfagen - Birds of Passage (2020) [] | Symphonic Prog / Progressive Rock

Karfagen - Birds of Passage (2020) [] | Symphonic Prog / Progressive Rock


Стиль: Symphonic Prog Progressive Rock
Країна, місто: Україна, Харків
Сайти: Офіційний сайт
Видавець: Caerllysi Music
Виконавці:
Антоній Калугін - клавіші, вокал, ударні інструменти, флейта фен, аранжування, програмування
Mathieu Spaeter - електрогітари
Костянтин Іоненко - бас
Віктор Сиротін - барабани
Тім Соболєв - вокал
Ольга Ростовська - вокал
Олександр Павлов - гітара
Олександр Пастухов - фагот
Марія Барановська - скрипка
Олена Кушій - флейта

Пісні:
    1. Birds of Passage (Part 1): - 22:40
    - a) Your Grace
    - b) Against the Southern Sky
    - c) Sounds That Flow
    - d) Chanticleer
    - e) Tears from the Eyelids Start (Part 1)
    2. Birds of Passage (Part 2): - 21:11
    - a) Eternity's Sun Rise
    - b) Echoing Green
    - c) Showers from the Clouds of Summer
    - d) Tears from the Eyelids Start (Part 2)
    Bonus Tracks:
    3. Spring (Birds Delight) - 04:34
    4. Sunrise - 05:23
    5. Birds (Short Introduction) - 03:19

Тривалість: 00:57:10
Мова: англiйська
Аудіо-кодек:
Бітрейт: 678 - 911 кб/с
Джерело: трекер
Додаткова інформація:
лог DRM
foobar2000 1.4.2 / Dynamic Range Meter 1.1.1
log date: 2020-01-06 14:55:33

--------------------------------------------------------------------------------
Analyzed: Karfagen / Birds of Passage
--------------------------------------------------------------------------------

DR Peak RMS Duration Track
--------------------------------------------------------------------------------
DR10 -0.03 dB -12.04 dB 22:41 01-Birds of Passage (Part 1)
DR10 -0.11 dB -13.37 dB 21:12 02-Birds of Passage (Part 2)
DR9 -0.20 dB -10.97 dB 4:35 03-Spring (Birds Delight)
DR12 0.00 dB -15.12 dB 5:23 04-Sunrise
DR9 -0.15 dB -11.26 dB 3:19 05-Birds Short Introduction
--------------------------------------------------------------------------------

Number of tracks: 5
Official DR value: DR10

Samplerate: 44100 Hz
Channels: 2
Bits per sample: 16
Bitrate: 911 kbps
Codec:
================================================================================
лог якостi
-----------------------

DON'T MODIFY THIS FILE

-----------------------

PERFORMER: auCDtect Task Manager, ver. 1.6.0 RC1 build 1.6.0.1
Copyright (c) 2008-2010 y-soft. All rights reserved
http://y-soft.org

ANALYZER: auCDtect: CD records authenticity detector, version 0.8.2
Copyright (c) 2004 Oleg Berngardt. All rights reserved.
Copyright (c) 2004 Alexander Djourik. All rights reserved.

FILE: 05 - Birds Short Introduction.
Size: 22787928 Hash: 3D60AF89788A1A9F97DD4CF5A9D3B8DC Accuracy: -m8
Conclusion: CDDA 100%
Signature: 2D38E0A4E2A0DE5EB59B8F9FA14E91B5D06C981F
FILE: 04 - Sunrise.
Size: 27500159 Hash: B4D7410775FBF4990F4498FFC51C1F7D Accuracy: -m8
Conclusion: CDDA 100%
Signature: EF99A8D7EE4D83B971F99DFA5F510BCE523A4426
FILE: 03 - Spring (Birds Delight).
Size: 28721451 Hash: CCE0CF9BEBC48AB7BC9656502D290095 Accuracy: -m8
Conclusion: CDDA 100%
Signature: A581F1B4F3CF100FA43260CEF7965E2F66F90E46
FILE: 02 - Birds of Passage (Part 2).
Size: 124211125 Hash: B1B187A3942954DA6E6A72EEDA65AFE7 Accuracy: -m8
Conclusion: CDDA 100%
Signature: E10ECF3E8611156AC445DCE962C9DD824DECFE0F
FILE: 01 - Birds of Passage (Part 1).
Size: 149360405 Hash: 0FA0431F7B7E3798233B1AF3DC6EAC71 Accuracy: -m8
Conclusion: CDDA 99%
Signature: 61316379FEAF7FEBA9E60E9118B84B0AC2B64F33


Якщо Ви справді бажаєте підтримати українське - після прослуховування, якщо музика вам сподобалась, придбайте ліцензійний диск. Підтримаймо вітчизняних виконавців!


Срібний реліз (на рейтинг впливає 50% завантаженого)
 Трекер:    Зареєстрований   

Завантажити / скачати українську музику



відео для новачків



 Зареєстрований:   2020-01-08 22:29
 Розмір:   337 MB 
 Оцінка музики:   10/10 (Голосів: 3)
   
Ваш часовий пояс: GMT + 2 Години

Нова тема   Відповісти