Монстри проти чужих / Monsters vs Aliens (2009) 1080p H.265 Ukr/Eng | Sub Ukr/Eng

Нові коментарі

Нова тема   Відповісти
Автор Повідомлення
Anonymous 







2020-01-08 20:17  
Монстри проти чужих / Monsters vs Aliens (2009) 1080p H.265 Ukr/Eng | Sub Ukr/Eng

Монстри проти чужих / Monsters vs Aliens (2009) 1080p H.265 Ukr/Eng | Sub Ukr/Eng


Жанр: анімація, фантастика, бойовик, комедія
Країна: США
Кінокомпанія: DreamWorks Animation
Режисер: Роб Леттерман, Конрад Вернон
Актори: Різ Уізерспун, Уілл Арнетт, Сет Роген, Хью Лорі, Рейн Уілсон, Кіфер Сазерленд, Пол Радд, Стівен Кольбер

Сюжет:
В день весілля на Сьюзан Мерфі потрапляє пил з метеорита і вона виростає до 15 метрів! Природно, що військові відчули загрозу і поспішили ізолювати її в секретному урядовому секторі. Там їй дали інше ім'я - Гігантика - і познайомили з групою монстрів, яких утримували в цьому ж секторі. Серед монстрів були: геніальний вчений, щоправда, з головою комахи, доктор наук, професор Тарган , мавпориб з характером справжнього мачо - Відсутня Ланка , драглистий незнищенний Б.О.Б. , а також стометрова личинка на ім’я Комахозавр.

Але їх нудному існуванню приходить кінець, коли на Землю приземляється іншопланетний робот і починає наводити страх на її мешканців. У розпачі Президент приймає рішення використати монстрів для боротьби з прибульцями і порятунку планети…

Тривалість: 01:34:21
Якість:

Відео:
кодек: H.265 (HEVC)
розмір кадру: 1920 x 818
бітрейт: 4 526 кб/с
бітова глибина: 10 біт

Увага! Перед завантаженням переконайтесь, що ваш пристрій відтворення (та/або ПЗ) підтримує H.265 (HEVC)

Аудіо # 1:
мова: українська
переклад: професійний дубльований
кодек: AC-3 5.1
бітрейт: 640 кб/с

Аудіо # 2:
мова: англійська
переклад: оригінал
кодек: 5.1
бітрейт: 1511 кб/с

Аудіо # 3:
мова: англійська
переклад: оригінал
кодек: Vorbis 2.0
бітрейт: 80 кб/с

Субтитри # 1: (Full)
мова: українська
тип: програмні (м'які)
формат: *.srt

Субтитри # 2-3: (Full, коментарі)
мова: англійська
тип: програмні (м'які)
формат: *.srt, *.


Info
Код:
General
Unique ID                                : 323352843280222769552579889052920034564 (0xF3437E0A7E41D43FB61D6AC83CAFB504)
Complete name                            : Monsters vs Aliens (2009) 1080p H.265 [UKR_ENG] [Hurtom].
Format                                   :
Format version                           : Version 4
File size                                : 4.45 GiB
Duration                                 : 1 h 34 min
Overall bit rate mode                    : Variable
Overall bit rate                         : 6 755 kb/s
Movie name                               : Монстри проти чужих / Monsters vs Aliens (2009)
Encoded date                             : UTC 2020-01-08 12:20:35
Writing application                      : v20.0.0 ('I Am The Sun') 64-bit
Writing library                          : libebml v1.3.5 + v1.4.8
Cover                                    : Yes
Attachments                              : Cover.jpg

Video
ID                                       : 1
Format                                   : HEVC
Format/Info                              : High Efficiency Video Coding
Format profile                           : Main [email protected]@High
Codec ID                                 : V_MPEGH/ISO/HEVC
Duration                                 : 1 h 34 min
Bit rate                                 : 4 526 kb/s
Width                                    : 1 920 pixels
Height                                   : 818 pixels
Display aspect ratio                     : 2.35:1
Frame rate mode                          : Constant
Frame rate                               : 23.976 (23976/1000) FPS
Original frame rate                      : 23.976 (24000/1001) FPS
Color space                              : YUV
Chroma subsampling                       : 4:2:0
Bit depth                                : 10 bits
Bits/(Pixel*Frame)                       : 0.120
Stream size                              : 2.98 GiB (67%)
Title                                    : Монстри проти чужих / Monsters vs Aliens (2009)
Writing library                          : x265 3.2.1+1-b5c86a64bbbe:[Windows][MSVC 1923][64 bit] 10bit
Encoding settings                        : cpuid=1111039 / frame-threads=3 / numa-pools=12 / wpp / no-pmode / no-pme / no-psnr / no-ssim / log-level=2 / input-csp=1 / input-res=1920x818 / interlace=0 / total-frames=122464 / level-idc=41 / high-tier=1 / uhd-bd=0 / ref=5 / no-allow-non-conformance / no-repeat-headers / annexb / no-aud / no-hrd / info / hash=0 / no-temporal-layers / open-gop / min-keyint=23 / keyint=240 / gop-lookahead=0 / bframes=8 / b-adapt=2 / b-pyramid / bframe-bias=0 / rc-lookahead=60 / lookahead-slices=4 / scenecut=40 / radl=0 / no-splice / no-intra-refresh / ctu=32 / min-cu-size=8 / rect / amp / max-tu-size=32 / tu-inter-depth=4 / tu-intra-depth=4 / limit-tu=1 / rdoq-level=2 / dynamic-rd=0.00 / no-ssim-rd / signhide / no-tskip / nr-intra=0 / nr-inter=0 / no-constrained-intra / no-strong-intra-smoothing / max-merge=4 / limit-refs=2 / limit-modes / me=3 / subme=7 / merange=57 / temporal-mvp / no-hme / weightp / weightb / no-analyze-src-pics / deblock=-3:-3 / no-sao / no-sao-non-deblock / rd=6 / selective-sao=0 / no-early-skip / no-rskip / no-fast-intra / no-tskip-fast / no-cu-lossless / no-b-intra / no-splitrd-skip / rdpenalty=0 / psy-rd=2.00 / psy-rdoq=1.00 / no-rd-refine / no-lossless / cbqpoffs=0 / crqpoffs=0 / rc=crf / crf=20.0 / qcomp=0.65 / qpstep=4 / stats-write=0 / stats-read=0 / vbv-maxrate=50000 / vbv-bufsize=50000 / vbv-init=0.9 / crf-max=0.0 / crf-min=0.0 / ipratio=1.40 / pbratio=1.30 / aq-mode=1 / aq-strength=1.00 / no-cutree / zone-count=0 / no-strict-cbr / qg-size=32 / no-rc-grain / qpmax=69 / qpmin=0 / no-const-vbv / sar=1 / overscan=0 / videoformat=5 / range=0 / colorprim=1 / transfer=1 / colormatrix=1 / chromaloc=0 / display-window=0 / cll=0,0 / min-luma=0 / max-luma=1023 / log2-max-poc-lsb=8 / vui-timing-info / vui-hrd-info / slices=1 / no-opt-qp-pps / no-opt-ref-list-length-pps / no-multi-pass-opt-rps / scenecut-bias=0.05 / no-opt-cu-delta-qp / no-aq-motion / no-hdr / no-hdr-opt / no-dhdr10-opt / no-idr-recovery-sei / analysis-reuse-level=5 / scale-factor=0 / refine-intra=0 / refine-inter=0 / refine-mv=1 / refine-ctu-distortion=0 / no-limit-sao / ctu-info=0 / no-lowpass-dct / refine-analysis-type=0 / copy-pic=1 / max-ausize-factor=1.0 / no-dynamic-refine / no-single-sei / no-hevc-aq / no-svt / no-field / qp-adaptation-range=1.00
Default                                  : Yes
Forced                                   : No
Color range                              : Limited
Color primaries                          : BT.709
Transfer characteristics                 : BT.709
Matrix coefficients                      : BT.709

Audio #1
ID                                       : 2
Format                                   : AC-3
Format/Info                              : Audio Coding 3
Commercial name                          : Dolby Digital
Codec ID                                 : A_AC3
Duration                                 : 1 h 34 min
Bit rate mode                            : Constant
Bit rate                                 : 640 kb/s
Channel(s)                               : 6 channels
Channel layout                           : L R C LFE Ls Rs
Sampling rate                            : 48.0 kHz
Frame rate                               : 31.250 FPS (1536 SPF)
Bit depth                                : 16 bits
Compression mode                         : Lossy
Stream size                              : 432 MiB (9%)
Title                                    : / 5.1 Ch / 640 kbps / ПД / Blu-Ray
Language                                 : Ukrainian
Service kind                             : Complete Main
Default                                  : Yes
Forced                                   : Yes

Audio #2
ID                                       : 3
Format                                   :
Format/Info                              : Digital Theater Systems
Codec ID                                 : A_DTS
Duration                                 : 1 h 34 min
Bit rate mode                            : Constant
Bit rate                                 : 1 510 kb/s
Channel(s)                               : 6 channels
Channel layout                           : C L R Ls Rs LFE
Sampling rate                            : 48.0 kHz
Frame rate                               : 93.750 FPS (512 SPF)
Bit depth                                : 24 bits
Compression mode                         : Lossy
Stream size                              : 1 019 MiB (22%)
Title                                    : / 5.1 Ch / 1509 kbps / Original
Language                                 : English
Default                                  : No
Forced                                   : No

Audio #3
ID                                       : 4
Format                                   : Vorbis
Format settings, Floor                   : 1
Codec ID                                 : A_VORBIS
Duration                                 : 1 h 34 min
Bit rate mode                            : Variable
Bit rate                                 : 80.0 kb/s
Channel(s)                               : 2 channels
Sampling rate                            : 48.0 kHz
Frame rate                               : 63.256 FPS (759 SPF)
Compression mode                         : Lossy
Stream size                              : 50.8 MiB (1%)
Title                                    : OGG / 2.0 Ch / 80 kbps / Original / Commentary
Writing library                          : aoTuV b5c  (UTC 2008-12-15)
Language                                 : English
Default                                  : No
Forced                                   : No

Text #1
ID                                       : 5
Format                                   : UTF-8
Codec ID                                 : S_TEXT/UTF8
Codec ID/Info                            : UTF-8 Plain Text
Duration                                 : 1 h 26 min
Bit rate                                 : 90 b/s
Count of elements                        : 959
Stream size                              : 57.4 KiB (0%)
Title                                    : Full
Language                                 : Ukrainian
Default                                  : Yes
Forced                                   : No

Text #2
ID                                       : 6
Format                                   : UTF-8
Codec ID                                 : S_TEXT/UTF8
Codec ID/Info                            : UTF-8 Plain Text
Duration                                 : 1 h 26 min
Bit rate                                 : 55 b/s
Count of elements                        : 944
Stream size                              : 35.0 KiB (0%)
Title                                    : Full
Language                                 : English
Default                                  : No
Forced                                   : No

Text #3
ID                                       : 7
Format                                   :
Codec ID                                 : S_TEXT/
Codec ID/Info                            : Advanced Sub Station Alpha
Duration                                 : 1 h 24 min
Bit rate                                 : 130 b/s
Count of elements                        : 1046
Compression mode                         : Lossless
Stream size                              : 81.1 KiB (0%)
Title                                    : коментарі
Language                                 : English
Default                                  : No
Forced                                   : No

Menu
00:00:00.000                             : en:00:00:00.000
00:05:08.934                             : en:00:05:08.934
00:07:39.501                             : en:00:07:39.501
00:11:01.995                             : en:00:11:01.995
00:17:36.097                             : en:00:17:36.097
00:20:36.902                             : en:00:20:36.902
00:24:10.407                             : en:00:24:10.407
00:28:20.741                             : en:00:28:20.741
00:32:41.960                             : en:00:32:41.960
00:35:10.483                             : en:00:35:10.483
00:38:59.420                             : en:00:38:59.420
00:41:51.384                             : en:00:41:51.384
00:46:47.096                             : en:00:46:47.096
00:50:10.257                             : en:00:50:10.257
00:55:48.053                             : en:00:55:48.053
00:59:38.158                             : en:00:59:38.158
01:03:24.134                             : en:01:03:24.134
01:06:38.244                             : en:01:06:38.244
01:08:38.281                             : en:01:08:38.281
01:14:00.353                             : en:01:14:00.353
01:16:55.569                             : en:01:16:55.569
01:18:10.227                             : en:01:18:10.227
01:21:38.393                             : en:01:21:38.393
01:25:10.105                             : en:01:25:10.105
Світлини




Джерело: &
Особиста оцінка: 0 - не дивився


 Трекер:    Зареєстрований   

Завантажити / скачати мультфільм українською



відео для новачків



 Зареєстрований:   2020-01-08 20:17
 Розмір:   4.45 GB 
 Оцінка мультфільму:   8.3/10 (Голосів: 9)
   
xlenz 
Новенький


З нами з: 20.07.14
Востаннє: 20.08.20
Повідомлень: 19

2020-01-12 20:31  
хороший мульт!
Ваш часовий пояс: GMT + 2 Години

Нова тема   Відповісти