Ціль номер один (Першочергова ціль) / First Target (2000) 1080p 2xUkr/Eng | Sub Eng

Нові коментарі

Нова тема   Відповісти
Автор Повідомлення
Anonymous 







2020-01-08 11:20  
Ціль номер один (Першочергова ціль) / First Target (2000) 1080p 2xUkr/Eng | Sub Eng

Ціль номер один (Першочергова ціль) / First Target (2000) 1080p 2xUkr/Eng | Sub Eng


Жанр: детектив, бойовик
Країна: США, Канада



Кінокомпанія: Columbia TriStar International Television, KirchMedia, Mandalay Sports Entertainment
Режисер: Арман Мастрояні
Актори: Деріл Ханна, Даг Севант, Бренді Ледфорд, Пітер Флеммінг, Гері Бейкуелл, Джейсон Шомбінг, Роберт Уїзден, Том Батлер, Она Грауер

Сюжет:
Вони вибирали президента і мріяли, що він поліпшить їхнє життя. Але обранець не виправдав очікувань, і тоді вони вирішили його прибрати. Вони пройшли довгий шлях і дісталися до мети. Тепер їх головна мета - президент Америки Джонатан Хейс - не втече від відплати. Ще трохи і кара наздожене його в Центральному парку. Чи зможе голова секретної служби Алекс МакГрегор за допомогою агента Гранта Колмена убезпечити свого шефа?


Тривалість: 01:32:45
Якість: 1080p
Відео:
кодек:
розмір кадру: 1920х1080
бітрейт: 13.5 Mб/с

Аудіо # 1:
мова: українська
переклад: багатоголосий закадровий
кодек: 2.0
бітрейт: 192 кб/с

Аудіо # 2:
мова: українська
переклад: двоголосий закадровий
кодек: 2.0
бітрейт: 192 кб/с

Аудіо # 3:
мова: англійська
переклад: оригінал
кодек: A_EAC3 2.0
бітрейт: 224 кб/с

Субтитри:
мова: англійська
тип: програмні (м'які)
формат: *.srt
Скріншоти





Info
General
Unique ID : 243097139355049915047766814106507002336 (0xB6E2CE56883EEB75BAFDA1B0B557C1E0)
Complete name : H:\Toloka\2020\First Target (2000) 1080p.
Format :
Format version : Version 4
File size : 9.31 GiB
Duration : 1 h 32 min
Overall bit rate : 14.4 Mb/s
Encoded date : UTC 2020-01-08 08:00:26
Writing application : v6.1.0 ('Old Devil') built on Mar 4 2013 09:10:42
Writing library : libebml v1.3.0 + v1.4.0

Video
ID : 1
Format : AVC
Format/Info : Advanced Video Codec
Format profile : [email protected]
Format settings : CABAC / 4 Ref Frames
Format settings, CABAC : Yes
Format settings, RefFrames : 4 frames
Codec ID : V_MPEG4/ISO/AVC
Duration : 1 h 32 min
Bit rate : 13.5 Mb/s
Width : 1 920 pixels
Height : 1 080 pixels
Display aspect ratio : 16:9
Frame rate mode : Constant
Frame rate : 23.976 (24000/1001) FPS
Color space : YUV
Chroma subsampling : 4:2:0
Bit depth : 8 bits
Scan type : Progressive
Bits/(Pixel*Frame) : 0.271
Stream size : 8.73 GiB (94%)
Language : English
Default : Yes
Forced : No
Color range : Limited
Color primaries : BT.709
Transfer characteristics : BT.709
Matrix coefficients : BT.709

Audio #1
ID : 2
Format : AC-3
Format/Info : Audio Coding 3
Commercial name : Dolby Digital
Codec ID : A_AC3
Duration : 1 h 32 min
Bit rate mode : Constant
Bit rate : 192 kb/s
Channel(s) : 2 channels
Channel layout : L R
Sampling rate : 48.0 kHz
Frame rate : 31.250 FPS (1536 SPF)
Bit depth : 16 bits
Compression mode : Lossy
Stream size : 127 MiB (1%)
Title : UKR (ICTV)
Language : Ukrainian
Service kind : Complete Main
Default : Yes
Forced : Yes

Audio #2
ID : 3
Format : AC-3
Format/Info : Audio Coding 3
Commercial name : Dolby Digital
Codec ID : A_AC3
Duration : 1 h 32 min
Bit rate mode : Constant
Bit rate : 192 kb/s
Channel(s) : 2 channels
Channel layout : L R
Sampling rate : 48.0 kHz
Frame rate : 31.250 FPS (1536 SPF)
Bit depth : 16 bits
Compression mode : Lossy
Stream size : 127 MiB (1%)
Title : UKR (Inter)
Language : Ukrainian
Service kind : Complete Main
Default : No
Forced : No

Audio #3
ID : 4
Format : E-AC-3
Format/Info : Enhanced AC-3
Commercial name : Dolby Digital Plus
Codec ID : A_EAC3
Duration : 1 h 32 min
Bit rate mode : Constant
Bit rate : 224 kb/s
Channel(s) : 2 channels
Channel layout : L R
Sampling rate : 48.0 kHz
Frame rate : 31.250 FPS (1536 SPF)
Compression mode : Lossy
Stream size : 149 MiB (2%)
Title : ENG
Language : English
Service kind : Complete Main
Default : No
Forced : No

Text #1
ID : 5
Format : UTF-8
Codec ID : S_TEXT/UTF8
Codec ID/Info : UTF-8 Plain Text
Language : English
Default : No
Forced : No

Text #2
ID : 6
Format : UTF-8
Codec ID : S_TEXT/UTF8
Codec ID/Info : UTF-8 Plain Text
Title : SDH
Language : English
Default : No
Forced : No
За доріжки подяка п.: Arsenfpu, РОМЕО
Особиста подяка пану denixx за надану матеріальну допомогу на підтримку цього і майбутніх релізів.
Джерело:


Срібний реліз (на рейтинг впливає 50% завантаженого)
 Трекер:    Зареєстрований   

Завантажити / скачати фільм українською



відео для новачків



 Зареєстрований:   2020-01-08 11:20
 Розмір:   9.31 GB 
 Оцінка фільму:   10/10 (Голосів: 2)
   
Інші релізи
Ваш часовий пояс: GMT + 2 Години

Нова тема   Відповісти