Тваринка / Pet (2020) (01-03 з 12) 720p

Нові коментарі

Нова тема   Відповісти
Автор Повідомлення
Noiseless 
Свій


З нами з: 16.06.19
Востаннє: 29.01.20
Повідомлень: 62

2020-01-07 22:35  
Тваринка / Pet (2020) (01-03 з 12) 720p

Тваринка / Pet (2020) (01-03 з 12) 720p


Жанр: детектив, сейнен
Країна: Японія



4.65 (11 голосів)

Кінокомпанія: Geno
Режисер: Такахіро Оморі
Ролі озвучують: Касе Хасуюкі, Уеда Кейске, Оно Юкі, Таніяма Кішо, Мао

Сюжет:
У цьому світі існують люди, які можуть проникати в розум людини й маніпулювати її спогадами. Такі особи дуже цінуються в кримінальному світі, оскільки їх вміло використовують у брудних справах. Але у цієї сили є й зворотний бік: якщо часто її використовувати, власник втрачає частина спогадів, і розум руйнується. Через страх і зневагу стосовно цих людей їх назвали “тваринками”.


Тривалість: 1 серія: ~24 хв (цілком серій: 12)
Перелік серій
1. Трощії
2. Вид вершини
3. Робота
Якість:
Відео:
кодек:
розмір кадру: 1280 х 720
бітрейт: 1345 кб/с

Аудіо:
мова: українська
переклад: двоголосий закадровий
кодек: 2.0
бітрейт: 192 кб/с

Субтитри:
мова: українська (тільки написи)
тип: програмні (м'які)
формат: *.
Info
General
Unique ID : 228539123855708892657162460704452693144 (0xABEF08C1F8C18AB3BC9D42218C00CC98)
Complete name : R:\Pet\Pet - 01 [ 720p] Ukr DVO.
Format :
Format version : Version 4
File size : 264 MiB
Duration : 23 min 56 s
Overall bit rate : 1 540 kb/s
Encoded date : UTC 2020-01-06 20:43:33
Writing application : v7.0.0 ('Where We Going') 32bit built on Jun 9 2014 15:08:34
Writing library : libebml v1.3.0 + v1.4.1
Cover : Yes
Attachments : cover.jpg / OpenSans-Semibold.ttf

Video
ID : 1
Format : AVC
Format/Info : Advanced Video Codec
Format profile : [email protected]
Format settings : CABAC / 5 Ref Frames
Format settings, CABAC : Yes
Format settings, Reference : 5 frames
Codec ID : V_MPEG4/ISO/AVC
Duration : 23 min 55 s
Bit rate : 1 345 kb/s
Width : 1 280 pixels
Height : 720 pixels
Display aspect ratio : 16:9
Frame rate mode : Constant
Frame rate : 23.976 (24000/1001) FPS
Color space : YUV
Chroma subsampling : 4:2:0
Bit depth : 8 bits
Scan type : Progressive
Bits/(Pixel*Frame) : 0.061
Stream size : 230 MiB (87%)
Title : 01
Language : Japanese
Default : Yes
Forced : Yes
Color range : Limited
Color primaries : BT.709
Transfer characteristics : BT.709
Matrix coefficients : BT.709

Audio
ID : 2
Format : LC
Format/Info : Advanced Audio Codec Low Complexity
Codec ID : A_AAC-2
Duration : 23 min 56 s
Bit rate : 192 kb/s
Channel(s) : 2 channels
Channel layout : L R
Sampling rate : 48.0 kHz
Frame rate : 46.875 FPS (1024 SPF)
Compression mode : Lossy
Stream size : 32.9 MiB (12%)
Title : DVO від Gwean & Maslinka
Language : Ukrainian
Default : Yes
Forced : Yes

Text
ID : 3
Format :
Codec ID : S_TEXT/
Codec ID/Info : Advanced Sub Station Alpha
Duration : 17 min 25 s
Bit rate : 6 b/s
Count of elements : 9
Compression mode : Lossless
Stream size : 839 Bytes (0%)
Title : написи
Language : Ukrainian
Default : Yes
Forced : Yes
Скріншоти





Озвучення: Gwean, Maslinka

Підтримати та подякувати озвучувачам можна ТУТ

Особиста оцінка: 8 - мені сподобалося


 Трекер:    Зареєстрований   

Завантажити / скачати аніме українською



відео для новачків



 Зареєстрований:   2020-01-23 12:46
 Розмір:   831 MB 
 Оцінка аніме:   10/10 (Голосів: 2)
   
Noiseless 
Свій


З нами з: 16.06.19
Востаннє: 29.01.20
Повідомлень: 62

2020-01-15 23:24  
Додано 2 серію!
Noiseless 
Свій


З нами з: 16.06.19
Востаннє: 29.01.20
Повідомлень: 62

2020-01-23 12:47  
Додано 3 серію!
Ваш часовий пояс: GMT + 2 Години

Нова тема   Відповісти