Тоґо / Togo (2019) 720p Ukr/Eng

Нові коментарі

Нова тема   Відповісти
Автор Повідомлення
simpsonsua 
Поважний учасник


З нами з: 13.03.18
Востаннє: 26.01.20
Повідомлень: 235

2020-01-07 22:31  
Тоґо / Togo (2019) 720p Ukr/Eng


Тоґо / Togo (2019) 720p Ukr/Eng


Якщо вам сподобалося озвучення фільму,
то ви можете підтримати нас за посиланням
ТИЦЬ


Жанр: драма
Країна: США



Кінокомпанія: Disney+
Режисер: Еріксон Кор
Ролі озвучують: Віллем Дефо, Джуліанна Ніколсон, Крістофер Хейєрдал, Річард Дормер, Едріан Дорваль, Майкл Грейес та інші

Сюжет:
Історія про собаку Того, лідера упряжки Леонардо Сеппали. Під час Гонки Милосердя 1925 року або Гонка з доставки сироватки до Нома вони здолали найбільшу та найскладнішу дистанцію серед всіх хто брав в ній участь. Таким чином було врятувано десятки дитячих життів від дифтерії.


Тривалість: 01:53:01
Якість: 720p
Відео:
кодек:
розмір кадру: 1280 x 720
бітрейт: ~ 5251 кб/с

Аудіо # 1:
мова: українська
озвучення: професійне багатоголосе закадрове | "simpsonsua.tv"
кодек: 5.1
бітрейт: 448 кб/с

Аудіо # 2:
мова: англійська
переклад: оригінал
кодек: E- 5.1
бітрейт: 768 кб/с
Info
Код:
Format                      :
Format version              : Version 4
File size                   : 4.30 GiB
Duration                    : 1 h 53 min
Overall bit rate mode       : Variable
Overall bit rate            : 5 451 kb/s
Movie name                  : EVO
Encoded date                : UTC 2020-01-08 09:14:05
Writing application         : v6.8.0 ('Theme for Great Cities') 32bit built on Mar  2 2014 21:27:07
Writing library             : libebml v1.3.0 + v1.4.1

Video
ID                          : 1
Format                      : AVC
Format/Info                 : Advanced Video Codec
Format profile              : [email protected]
Format settings             : CABAC / 4 Ref Frames
Format settings, CABAC      : Yes
Format settings, Reference  : 4 frames
Codec ID                    : V_MPEG4/ISO/AVC
Duration                    : 1 h 53 min
Bit rate mode               : Variable
Bit rate                    : 4 127 kb/s
Maximum bit rate            : 6 375 kb/s
Width                       : 1 280 pixels
Height                      : 720 pixels
Display aspect ratio        : 16:9
Frame rate mode             : Constant
Frame rate                  : 23.976 (24000/1001) FPS
Color space                 : YUV
Chroma subsampling          : 4:2:0
Bit depth                   : 8 bits
Scan type                   : Progressive
Bits/(Pixel*Frame)          : 0.187
Stream size                 : 3.26 GiB (76%)
Default                     : Yes
Forced                      : No
Color range                 : Limited
Color primaries             : BT.709
Transfer characteristics    : BT.709
Matrix coefficients         : BT.709

Audio #1
ID                          : 2
Format                      : AC-3
Format/Info                 : Audio Coding 3
Commercial name             : Dolby Digital
Codec ID                    : A_AC3
Duration                    : 1 h 53 min
Bit rate mode               : Constant
Bit rate                    : 448 kb/s
Channel(s)                  : 6 channels
Channel layout              : L R C LFE Ls Rs
Sampling rate               : 48.0 kHz
Frame rate                  : 31.250 FPS (1536 SPF)
Bit depth                   : 16 bits
Compression mode            : Lossy
Stream size                 : 362 MiB (8%)
Title                       : Українська
Language                    : Ukrainian
Service kind                : Complete Main
Default                     : Yes
Forced                      : No

Audio #2
ID                          : 3
Format                      : E-AC-3 JOC
Format/Info                 : Enhanced AC-3 with Joint Object Coding
Commercial name             : Dolby Digital Plus with Dolby Atmos
Codec ID                    : A_EAC3
Duration                    : 1 h 53 min
Bit rate mode               : Constant
Bit rate                    : 768 kb/s
Channel(s)                  : 6 channels
Channel layout              : L R C LFE Ls Rs
Sampling rate               : 48.0 kHz
Frame rate                  : 31.250 FPS (1536 SPF)
Compression mode            : Lossy
Delay relative to video     : 280 ms
Stream size                 : 621 MiB (14%)
Language                    : English
Service kind                : Complete Main
Default                     : No
Forced                      : No
Complexity index            : 16
Number of dynamic objects   : 15
Bed channel count           : 1 channel
Bed channel configuration   : LFE
Скріншоти:



Озвучено студією сайту:
Ролі озвучили: Євген Малуха, Роман Чупіс та Ольга Мотрич.

Якщо вам сподобалося озвучення фільму,
то ви можете підтримати нас за посиланням
ТИЦЬ


Авторський реліз (завантажувати можна без реєстрації)
 Трекер:    Зареєстрований   

Завантажити / скачати фільм українською



відео для новачків



 Зареєстрований:   2020-01-08 11:28
 Розмір:   4.3 GB 
 Оцінка фільму:   9.7/10 (Голосів: 30)
 Замінено відеоряд.
   
Інші релізи
   Тоґо / Togo (2019) AVC Ukr/Eng simpsonsua  100 / 5   1.83 GB   2020-01-08 01:52 
   Тоґо / Togo (2019) antik_2008  151 / 1   1.91 GB   2020-01-08 01:01 
   Тоґо / Togo (2019) 1080p Ukr/Eng simpsonsua  114 / 1   5.11 GB   2020-01-07 22:16 
bot 
робот


З нами з: 30.09.07
Востаннє: 26.05.05
Повідомлень: 23064

2020-01-07 22:31  
Тему перенесено з Фільми в HD до форуму Анонси релізів


simpsonsua

bot 
робот


З нами з: 30.09.07
Востаннє: 26.05.05
Повідомлень: 23064

2020-01-08 02:04  
Тему перенесено з Анонси релізів до форуму Фільми в HD


simpsonsua

igor911 
Модератор відео


З нами з: 18.01.08
Востаннє: 26.01.20
Повідомлень: 13981

2020-01-08 10:46  
simpsonsua написано:

розмір кадру: 1280 x 640
бітрейт: 1100 кб/с


Чому взяли цей обмилок замість вебки нормальної якості ?
(Togo.2019.iNTERNAL.720p.WEB.H264-SECRECY, Video bitrate...: 4233 kbps
Resolution......: 1280 x 720)

simpsonsua 
Поважний учасник


З нами з: 13.03.18
Востаннє: 26.01.20
Повідомлень: 235

2020-01-08 11:28  
igor911
Замінимо. Спасибі.

Додано через 34 хвилини 59 секунд:

Замінено відеоряд.

igor911 
Модератор відео


З нами з: 18.01.08
Востаннє: 26.01.20
Повідомлень: 13981

2020-01-08 11:55  
simpsonsua написано:
Замінено відеоряд

оновіть скріншоти, будь ласка.

simpsonsua 
Поважний учасник


З нами з: 13.03.18
Востаннє: 26.01.20
Повідомлень: 235

2020-01-08 11:59  
igor911
Готово!

Electroz 
Відео Гуртом - підтримка та поширення
Відео Гуртом - підтримка та поширення


З нами з: 18.09.14
Востаннє: 26.01.20
Повідомлень: 3746

2020-01-08 12:13  
simpsonsua написано:
бітрейт: 4127 кб/с - 6375 кб/с

Вказується середній бітрейт 4127
simpsonsua написано:
бітрейт: 640 кб/с

768

igor911 
Модератор відео


З нами з: 18.01.08
Востаннє: 26.01.20
Повідомлень: 13981

2020-01-08 12:13  
simpsonsua написано:
розмір кадру: 1280 x 720

simpsonsua написано:
Готово!

вони чомусь досі 1280х640

Electroz 
Відео Гуртом - підтримка та поширення
Відео Гуртом - підтримка та поширення


З нами з: 18.09.14
Востаннє: 26.01.20
Повідомлень: 3746

2020-01-08 12:13  
simpsonsua написано:

simpsonsua 
Поважний учасник


З нами з: 13.03.18
Востаннє: 26.01.20
Повідомлень: 235

2020-01-08 12:24  
igor911, Electroz

Все виправили!

igor911 
Модератор відео


З нами з: 18.01.08
Востаннє: 26.01.20
Повідомлень: 13981

2020-01-08 12:29  
simpsonsua написано:
Все виправили! ...

Зі скріншотами схоже, на..обка вийшла - вони ті самі, що й були у попередньому ріпі, але розтягнуті по вертикалі. Замініть на скріншоти з поточного відеоряду.

Додано через 51 секунду:

simpsonsua написано:
бітрейт: ~ 5251 кб/с

вкажіть правильний бітрейт

Obey 
Свій


З нами з: 12.06.11
Востаннє: 25.01.20
Повідомлень: 97

2020-01-08 16:11  
Дякую за проведену роботу!
Ще б постер у файл вбудували, було б супер

Cerguk 
Свій


З нами з: 30.09.09
Востаннє: 26.01.20
Повідомлень: 97

2020-01-08 19:25  
І як дане озвучення, нормальне ? Вперше бачу таку студію.
Obey 
Свій


З нами з: 12.06.11
Востаннє: 25.01.20
Повідомлень: 97

2020-01-08 19:32  
Cerguk Так, нормальне, для мене навіть шикарне
Почуєте знайомі голоси

JAWA350. 
Частий відвідувач


З нами з: 26.11.13
Востаннє: 19.01.20
Повідомлень: 38

2020-01-11 13:42  
/// кіно гарне.озвучка супер.
Cerguk 
Свій


З нами з: 30.09.09
Востаннє: 26.01.20
Повідомлень: 97

2020-01-12 17:42  
Так, фільм гарний, і озвучка теж, але от в головного героя (Дефо), голос озвучений вкрай невдало, якийсь неприємний і не підходить анітрохи...
Ваш часовий пояс: GMT + 2 Години

Нова тема   Відповісти