Тоґо / Togo (2019) AVC Ukr/Eng

Нові коментарі

Нова тема   Відповісти
Автор Повідомлення
simpsonsua 
Поважний учасник


З нами з: 13.03.18
Востаннє: 26.01.20
Повідомлень: 235

2020-01-07 22:31  
Тоґо / Togo (2019) AVC Ukr/Eng


Тоґо / Togo (2019) AVC Ukr/Eng


Якщо вам сподобалося озвучення фільму,
то ви можете підтримати нас за посиланням
ТИЦЬ


Жанр: драма
Країна: США



Кінокомпанія: Disney+
Режисер: Еріксон Кор
Ролі озвучують: Віллем Дефо, Джуліанна Ніколсон, Крістофер Хейєрдал, Річард Дормер, Едріан Дорваль, Майкл Грейес та інші

Сюжет:
Історія про собаку Того, лідера упряжки Леонардо Сеппали. Під час Гонки Милосердя 1925 року або Гонка з доставки сироватки до Нома вони здолали найбільшу та найскладнішу дистанцію серед всіх хто брав в ній участь. Таким чином було врятувано десятки дитячих життів від дифтерії.


Тривалість: 01:53:01
Якість: AVC
Відео:
кодек:
розмір кадру: 720 x 360
бітрейт: 1100 кб/с

Аудіо # 1:
мова: українська
озвучення: професійне багатоголосе закадрове | "simpsonsua.tv"
кодек: 5.1
бітрейт: 448 кб/с

Аудіо # 2:
мова: англійська
переклад: оригінал
кодек: E- 5.1
бітрейт: 768 кб/с
Info
Код:
Format                      :
Format version              : Version 4
File size                   : 1.83 GiB
Duration                    : 1 h 53 min
Overall bit rate            : 2 318 kb/s
Movie name                  : EVO
Encoded date                : UTC 2020-01-07 23:34:58
Writing application         : v6.8.0 ('Theme for Great Cities') 32bit built on Mar  2 2014 21:27:07
Writing library             : libebml v1.3.0 + v1.4.1

Video
ID                          : 1
Format                      : AVC
Format/Info                 : Advanced Video Codec
Format profile              : [email protected]
Format settings             : CABAC / 5 Ref Frames
Format settings, CABAC      : Yes
Format settings, Reference  : 5 frames
Codec ID                    : V_MPEG4/ISO/AVC
Duration                    : 1 h 53 min
Bit rate                    : 1 100 kb/s
Width                       : 720 pixels
Height                      : 360 pixels
Display aspect ratio        : 2.000
Frame rate mode             : Constant
Frame rate                  : 23.976 (24000/1001) FPS
Color space                 : YUV
Chroma subsampling          : 4:2:0
Bit depth                   : 8 bits
Scan type                   : Progressive
Bits/(Pixel*Frame)          : 0.177
Stream size                 : 853 MiB (46%)
Writing library             : core 148 r2795M aaa9aa8
Encoding settings           : cabac=1 / ref=5 / deblock=1:-1:-1 / analyse=0x3:0x113 / me=umh / subme=9 / psy=1 / psy_rd=1.00:0.15 / mixed_ref=1 / me_range=16 / chroma_me=1 / trellis=2 / 8x8dct=1 / cqm=0 / deadzone=21,11 / fast_pskip=1 / chroma_qp_offset=-3 / threads=24 / lookahead_threads=2 / sliced_threads=0 / nr=0 / decimate=1 / interlaced=0 / bluray_compat=0 / constrained_intra=0 / bframes=3 / b_pyramid=2 / b_adapt=2 / b_bias=0 / direct=3 / weightb=1 / open_gop=0 / weightp=2 / keyint=250 / keyint_min=23 / scenecut=40 / intra_refresh=0 / rc_lookahead=50 / rc=2pass / mbtree=1 / bitrate=1100 / ratetol=1.0 / qcomp=0.60 / qpmin=0 / qpmax=69 / qpstep=4 / cplxblur=20.0 / qblur=0.5 / ip_ratio=1.40 / aq=1:1.00
Default                     : Yes
Forced                      : No

Audio #1
ID                          : 2
Format                      : AC-3
Format/Info                 : Audio Coding 3
Commercial name             : Dolby Digital
Codec ID                    : A_AC3
Duration                    : 1 h 53 min
Bit rate mode               : Constant
Bit rate                    : 448 kb/s
Channel(s)                  : 6 channels
Channel layout              : L R C LFE Ls Rs
Sampling rate               : 48.0 kHz
Frame rate                  : 31.250 FPS (1536 SPF)
Bit depth                   : 16 bits
Compression mode            : Lossy
Stream size                 : 362 MiB (19%)
Title                       : Українська
Language                    : Ukrainian
Service kind                : Complete Main
Default                     : Yes
Forced                      : No

Audio #2
ID                          : 3
Format                      : E-AC-3 JOC
Format/Info                 : Enhanced AC-3 with Joint Object Coding
Commercial name             : Dolby Digital Plus with Dolby Atmos
Codec ID                    : A_EAC3
Duration                    : 1 h 53 min
Bit rate mode               : Constant
Bit rate                    : 768 kb/s
Channel(s)                  : 6 channels
Channel layout              : L R C LFE Ls Rs
Sampling rate               : 48.0 kHz
Frame rate                  : 31.250 FPS (1536 SPF)
Compression mode            : Lossy
Delay relative to video     : 280 ms
Stream size                 : 621 MiB (33%)
Language                    : English
Service kind                : Complete Main
Default                     : No
Forced                      : No
Complexity index            : 16
Number of dynamic objects   : 15
Bed channel count           : 1 channel
Bed channel configuration   : LFE
Скріншоти:



Озвучено студією сайту:
Ролі озвучили: Євген Малуха, Роман Чупіс та Ольга Мотрич.

Якщо вам сподобалося озвучення фільму,
то ви можете підтримати нас за посиланням
ТИЦЬ


Авторський реліз (завантажувати можна без реєстрації)
 Трекер:    Зареєстрований   

Завантажити / скачати фільм українською



відео для новачків



 Зареєстрований:   2020-01-08 01:52
 Розмір:   1.83 GB 
 Оцінка фільму:   9.8/10 (Голосів: 43)
   
Інші релізи
   Тоґо / Togo (2019) 720p Ukr/Eng simpsonsua  68 / 0   4.3 GB   2020-01-08 11:28 
   Тоґо / Togo (2019) antik_2008  191 / 0   1.91 GB   2020-01-08 01:01 
   Тоґо / Togo (2019) 1080p Ukr/Eng simpsonsua  151 / 3   5.11 GB   2020-01-07 22:16 
bot 
робот


З нами з: 30.09.07
Востаннє: 26.05.05
Повідомлень: 23065

2020-01-07 22:31  
Тему перенесено з Фільми в HD до форуму Анонси релізів


simpsonsua

bot 
робот


З нами з: 30.09.07
Востаннє: 26.05.05
Повідомлень: 23065

2020-01-08 01:52  
Тему перенесено з Анонси релізів до форуму Фільми


simpsonsua

Maters 
Відео Гуртом - підтримка та поширення
Відео Гуртом - підтримка та поширення


З нами з: 27.03.12
Востаннє: 26.01.20
Повідомлень: 2015

2020-01-08 16:47  
Опис сюжету дуже нагадує мультфільм "Балто"
Cucaracho 
Новенький


З нами з: 19.02.12
Востаннє: 25.01.20
Повідомлень: 1

2020-01-08 18:00  
Цитата:
Опис сюжету дуже нагадує мультфільм "Балто"

про нього тут також є ...

Dasistkino 
Новенький


З нами з: 26.07.19
Востаннє: 24.01.20
Повідомлень: 5

2020-01-10 22:41  
Сказати що це класне кіно це нічого не сказати!
Дуже і дуже гарний фільм, я не баба і не сопляк , але сльозу пустив не один раз.
Рекомендую 20/10

ТиДиви 
Свій


З нами з: 03.01.17
Востаннє: 26.01.20
Повідомлень: 102

2020-01-12 12:49  
Фільм вражаючий, повертає у дитинство, а переклад фільму на трієчку. Для цього кінофільму потрібен професійно-дубльований переклад.
bonba 
Новенький


З нами з: 08.11.17
Востаннє: 24.01.20
Повідомлень: 6

2020-01-12 13:10  
гарний фільм
Форкуш 
VIP


З нами з: 03.02.10
Востаннє: 26.01.20
Повідомлень: 2577

2020-01-13 00:29  
Історія супер. Фільм не вразив. 6/10
Ваш часовий пояс: GMT + 2 Години

Нова тема   Відповісти