Людина-павук: Трилогія / Spider-Man: Trilogy (2002/2004/2007) 1080p H.265 Ukr/Eng | Sub Eng

Нові коментарі

Нова тема   Відповісти
Автор Повідомлення
Anonymous 







2020-01-07 17:53  
Людина-павук: Трилогія / Spider-Man: Trilogy (2002/2004/2007) 1080p H.265 Ukr/Eng | Sub Eng

Людина-павук: Трилогія / Spider-Man: Trilogy (2002/2004/2007) 1080p H.265 Ukr/Eng | Sub Eng

1. 2. 3.

1. Людина-павук / Spider-Man (2002) (4K Remastered) UHD 1080p H.265 Ukr/Eng | Sub Eng
Людина-павук / Spider-Man (2002) [4K Remastered] UHD 1080p H.265 Ukr/Eng | Sub Eng

Людина-павук: Трилогія / Spider-Man: Trilogy (2002/2004/2007) 1080p H.265 Ukr/Eng | Sub Eng


Жанр: кінокомікс, бойовик, пригодницький, фантастика
Країна: США
Кінокомпанія: Columbia Pictures Corporation, Marvel Enterprises, Laura Ziskin Productions
Режисер: Сем Реймі
Актори: Тобі Магвайр, Віллем Дефо, Кірстен Данст, Джеймс Франко, Кліфф Робертсон, Розмарі Гарріс, Дж. К. Сіммонс, Джо Манґаніелло, Джеррі Бекер, Білл Нанн, Елізабет Бенкс

Сюжет:
Ще вчора Пітер Паркер був звичайним школярем, якого всі вважали невдахою і занудою, але в один прекрасний день з ним відбувається диво. Пітера кусає павук-мутант, після чого з юнаком відбуваються дивні речі. Неймовірним чином загострюються всі його почуття, з'являється величезна сила і спритність, а головне — уміння лазити по стінах і пересуватись з допомогою міцної павутини! Так Пітер починає нове життя в образі таємничої Людини-павука, рятівника людей і грози злочинного світу. Але там, де є супергерой, рано чи пізно завжди появляється суперлиходій. І незабаром Людині-павуку доведеться битися із Зеленим Ґобліном — монстром, який нищить місто на літаючому ґлайдері. У цій великій битві вирішиться не тільки їх доля, але й долі жителів міста...

Тривалість: 02:01:12
Якість:

Відео:
кодек: H.265 (HEVC)
розмір кадру: 1920 x 1038
бітрейт: 15 156 кб/с
бітова глибина: 10 біт

Увага! Перед завантаженням переконайтесь, що ваш пристрій відтворення (та/або ПЗ) підтримує H.265 (HEVC)

Аудіо # 1:
мова: українська
переклад: багатоголосий закадровий ,
кодек: AC-3 2.0
бітрейт: 192 кб/с

Аудіо # 2:
мова: англійська
переклад: оригінал
кодек: 5.1
бітрейт: 1511 кб/с

Аудіо # 3:
мова: англійська
переклад: оригінал | коментарі
кодек: AC-3 2.0
бітрейт: 192 кб/с

Субтитри # 1-2: (Full, SDH)
мова: англійська
тип: програмні (м'які)
формат: *.srt


Info
Код:
General
Unique ID                                : 200374252840088872290906727082463900365 (0x96BEAD67A797F56B4800EA37C2C4B2CD)
Complete name                            : 01. Spider-Man (2002) UHD 1080p H.265 [UKR_ENG] [Hurtom].
Format                                   :
Format version                           : Version 4
File size                                : 14.4 GiB
Duration                                 : 2 h 1 min
Overall bit rate                         : 17.1 Mb/s
Movie name                               : Людина-павук / Spider-Man (2002) [4K Remaster]
Encoded date                             : UTC 2020-01-03 15:49:43
Writing application                      : v20.0.0 ('I Am The Sun') 64-bit
Writing library                          : libebml v1.3.5 + v1.4.8
Cover                                    : Yes
Attachments                              : Cover.jpg

Video
ID                                       : 1
Format                                   : HEVC
Format/Info                              : High Efficiency Video Coding
Format profile                           : Main [email protected]@High
Codec ID                                 : V_MPEGH/ISO/HEVC
Duration                                 : 2 h 1 min
Bit rate                                 : 15.2 Mb/s
Width                                    : 1 920 pixels
Height                                   : 1 038 pixels
Display aspect ratio                     : 1.85:1
Frame rate mode                          : Constant
Frame rate                               : 23.976 (24000/1001) FPS
Color space                              : YUV
Chroma subsampling                       : 4:2:0
Bit depth                                : 10 bits
Bits/(Pixel*Frame)                       : 0.317
Stream size                              : 12.8 GiB (89%)
Title                                    : Людина-павук / Spider-Man (2002) [4K Remaster]
Writing library                          : x265 3.2+5-354901970679:[Windows][clang 8.0.1][64 bit] 10bit
Encoding settings                        : cpuid=1049583 / frame-threads=5 / numa-pools=4 / wpp / no-pmode / no-pme / no-psnr / no-ssim / log-level=3 / input-csp=1 / input-res=1920x1038 / interlace=0 / total-frames=0 / level-idc=41 / high-tier=1 / uhd-bd=0 / ref=5 / allow-non-conformance / no-repeat-headers / annexb / no-aud / no-hrd / info / hash=0 / no-temporal-layers / open-gop / min-keyint=24 / keyint=240 / gop-lookahead=0 / bframes=12 / b-adapt=2 / b-pyramid / bframe-bias=0 / rc-lookahead=40 / lookahead-slices=6 / scenecut=40 / radl=0 / no-splice / no-intra-refresh / ctu=32 / min-cu-size=8 / rect / no-amp / max-tu-size=32 / tu-inter-depth=4 / tu-intra-depth=4 / limit-tu=1 / rdoq-level=1 / dynamic-rd=0.00 / no-ssim-rd / signhide / no-tskip / nr-intra=0 / nr-inter=0 / no-constrained-intra / no-strong-intra-smoothing / max-merge=5 / limit-refs=1 / no-limit-modes / me=3 / subme=7 / merange=57 / temporal-mvp / no-frame-dup / no-hme / weightp / no-weightb / no-analyze-src-pics / deblock=-3:-3 / no-sao / no-sao-non-deblock / rd=4 / selective-sao=0 / early-skip / no-rskip / no-fast-intra / no-tskip-fast / no-cu-lossless / b-intra / no-splitrd-skip / rdpenalty=0 / psy-rd=2.00 / psy-rdoq=1.00 / no-rd-refine / no-lossless / cbqpoffs=0 / crqpoffs=0 / rc=crf / crf=22.0 / qcomp=0.60 / qpstep=4 / stats-write=0 / stats-read=0 / vbv-maxrate=50000 / vbv-bufsize=50000 / vbv-init=0.9 / crf-max=0.0 / crf-min=0.0 / ipratio=1.40 / pbratio=1.30 / aq-mode=3 / aq-strength=1.00 / no-cutree / zone-count=0 / no-strict-cbr / qg-size=32 / no-rc-grain / qpmax=69 / qpmin=0 / no-const-vbv / sar=1 / overscan=0 / videoformat=5 / range=0 / colorprim=1 / transfer=1 / colormatrix=1 / chromaloc=0 / display-window=0 / cll=0,0 / min-luma=0 / max-luma=1023 / log2-max-poc-lsb=8 / vui-timing-info / vui-hrd-info / slices=1 / no-opt-qp-pps / no-opt-ref-list-length-pps / no-multi-pass-opt-rps / scenecut-bias=0.05 / no-opt-cu-delta-qp / no-aq-motion / no-hdr / no-hdr-opt / no-dhdr10-opt / no-idr-recovery-sei / analysis-reuse-level=5 / scale-factor=0 / refine-intra=0 / refine-inter=0 / refine-mv=1 / refine-ctu-distortion=0 / no-limit-sao / ctu-info=0 / no-lowpass-dct / refine-analysis-type=0 / copy-pic=1 / max-ausize-factor=1.0 / no-dynamic-refine / no-single-sei / no-hevc-aq / no-svt / no-field / qp-adaptation-range=1.00
Language                                 : English
Default                                  : Yes
Forced                                   : No
Color range                              : Limited
Color primaries                          : BT.709
Transfer characteristics                 : BT.709
Matrix coefficients                      : BT.709

Audio #1
ID                                       : 2
Format                                   : AC-3
Format/Info                              : Audio Coding 3
Commercial name                          : Dolby Digital
Codec ID                                 : A_AC3
Duration                                 : 2 h 1 min
Bit rate mode                            : Constant
Bit rate                                 : 192 kb/s
Channel(s)                               : 2 channels
Channel layout                           : L R
Sampling rate                            : 48.0 kHz
Frame rate                               : 31.250 FPS (1536 SPF)
Bit depth                                : 16 bits
Compression mode                         : Lossy
Stream size                              : 166 MiB (1%)
Title                                    : / 2.0 Ch / 192 kbps / БЗ / Novy Kanal, Inter / Так Треба Продакшн
Language                                 : Ukrainian
Service kind                             : Complete Main
Default                                  : Yes
Forced                                   : Yes

Audio #2
ID                                       : 3
Format                                   :
Format/Info                              : Digital Theater Systems
Codec ID                                 : A_DTS
Duration                                 : 2 h 1 min
Bit rate mode                            : Constant
Bit rate                                 : 1 510 kb/s
Channel(s)                               : 6 channels
Channel layout                           : C L R Ls Rs LFE
Sampling rate                            : 48.0 kHz
Frame rate                               : 93.750 FPS (512 SPF)
Bit depth                                : 24 bits
Compression mode                         : Lossy
Stream size                              : 1.28 GiB (9%)
Title                                    : / 5.1 Ch / 1509 kbps / Original
Language                                 : English
Default                                  : No
Forced                                   : No

Audio #3
ID                                       : 4
Format                                   : AC-3
Format/Info                              : Audio Coding 3
Commercial name                          : Dolby Digital
Codec ID                                 : A_AC3
Duration                                 : 2 h 1 min
Bit rate mode                            : Constant
Bit rate                                 : 192 kb/s
Channel(s)                               : 2 channels
Channel layout                           : L R
Sampling rate                            : 48.0 kHz
Frame rate                               : 31.250 FPS (1536 SPF)
Bit depth                                : 16 bits
Compression mode                         : Lossy
Stream size                              : 166 MiB (1%)
Title                                    : / 2.0 Ch / 192 kbps / Original / Сommentary with Director Sam Raimi, actor Kirsten Dunst, producer Laura Ziskin, and co-producer Grant Curtis
Language                                 : English
Service kind                             : Complete Main
Default                                  : No
Forced                                   : No

Text #1
ID                                       : 5
Format                                   : UTF-8
Codec ID                                 : S_TEXT/UTF8
Codec ID/Info                            : UTF-8 Plain Text
Duration                                 : 1 h 52 min
Bit rate                                 : 48 b/s
Count of elements                        : 1199
Stream size                              : 39.8 KiB (0%)
Title                                    : Full
Language                                 : English
Default                                  : No
Forced                                   : No

Text #2
ID                                       : 6
Format                                   : UTF-8
Codec ID                                 : S_TEXT/UTF8
Codec ID/Info                            : UTF-8 Plain Text
Duration                                 : 1 h 54 min
Bit rate                                 : 52 b/s
Count of elements                        : 1380
Stream size                              : 43.9 KiB (0%)
Title                                    : SDH
Language                                 : English
Default                                  : No
Forced                                   : No

Menu
00:00:00.000                             : en:01. Start
00:06:29.472                             : en:02. Columbia University Research Lab
00:09:22.896                             : en:03. Bitten by a Spider
00:14:56.187                             : en:04. Norman Tests the Performance Enhancers
00:17:50.653                             : en:05. A Big Change
00:21:53.604                             : en:06. Great Reflexes
00:23:28.616                             : en:07. Fight With Flash
00:25:18.767                             : en:08. Scaling the Hights
00:34:35.115                             : en:09. With Great Power Comes Great Responsibility
00:40:22.170                             : en:10. The Wrestling Match
00:41:44.127                             : en:11. Enter the Thief
00:43:13.883                             : en:12. The Death of Uncle Ben
00:44:40.011                             : en:13. Chasing Uncle Ben's Killer
00:54:32.978                             : en:14. Spider-Man to the Rescue
00:55:52.558                             : en:15. J. Jonah Jameson
01:00:48.937                             : en:16. Peter's Photos of Spider-Man
01:04:20.774                             : en:17. World Unity Festival
01:05:57.036                             : en:18. Battle Over Times Square
01:12:12.370                             : en:19. Norman Meets the Goblin
01:14:18.871                             : en:20. Goblin Terrorizes the Bugle
01:15:48.669                             : en:21. The Goblin's Proposal
01:19:35.521                             : en:22. The Alley Kiss
01:22:06.463                             : en:23. Hot Time With the Goblin
01:25:13.608                             : en:24. Thanksgiving Dinner
01:30:39.225                             : en:25. Goblin Attacks Aunt May
01:39:36.679                             : en:26. The Queensboro Bridge
01:45:08.385                             : en:27. A Final Battle
01:50:27.830                             : en:28. Norman's Funeral
Світлини



2. Людина-павук 2 / Spider-Man 2 (2004) (4K Remastered) UHD 1080p H.265 Ukr/Eng | Sub Eng
Людина-павук 2 / Spider-Man 2 (2004) [4K Remastered] UHD 1080p H.265 Ukr/Eng | Sub Eng

Людина-павук: Трилогія / Spider-Man: Trilogy (2002/2004/2007) 1080p H.265 Ukr/Eng | Sub Eng


Жанр: бойовик, фантастика, трилер, кінокомікс
Країна: США
Кінокомпанія: Columbia Pictures Corporation, Marvel Enterprises, Laura Ziskin Productions
Режисер: Сем Реймі
Актори: Тобі Магвайр, Кірстен Данст, Джеймс Франко, Альфред Моліна, Розмарі Гарріс, Дж. К. Сіммонс, Донна Мерфі, Деніел Ґілліс, Ділан Бейкер, Білл Нанн, Елізабет Бенкс

Сюжет:
Життя Пітера Паркера далеке від ідеалу — щодня він рятує життя жителів Нью-Йорка, в той час, як його власне стає все складнішим. Мері Джейн зізнається йому, що збирається вийти заміж за астронавта Джона — сина Джей Джона Джеймсона. Його тітці Мей загрожує виселення, а після невдалого експерименту учений Отто Октавіус стає зловісним Доктором Восьминогом, який мріє знищити Нью-Йорк.

Тривалість: 02:07:27
Якість:

Відео:
кодек: H.265 (HEVC)
розмір кадру: 1920 x 804
бітрейт: 9 498 кб/с
бітова глибина: 10 біт

Увага! Перед завантаженням переконайтесь, що ваш пристрій відтворення (та/або ПЗ) підтримує H.265 (HEVC)

Аудіо # 1:
мова: українська
переклад: багатоголосий закадровий
кодек: AC-3 2.0
бітрейт: 192 кб/с

Аудіо # 2:
мова: англійська
переклад: оригінал
кодек: 5.1
бітрейт: 1510 кб/с

Субтитри # 1-2: (Full, SDH)
мова: англійська
тип: програмні (м'які)
формат: *.srt


Info
Код:
General
Unique ID                                : 30945162164889347923936374575845103425 (0x1747D24A33A1F2620BE3FEE7B3605741)
Complete name                            : 02. Spider-Man 2 (2004) UHD 1080p H.265 [UKR_ENG] [Hurtom].
Format                                   :
Format version                           : Version 4
File size                                : 9.97 GiB
Duration                                 : 2 h 7 min
Overall bit rate                         : 11.2 Mb/s
Movie name                               : Людина-павук 2 / Spider-Man 2 (2004) [4K Remaster]
Encoded date                             : UTC 2020-01-03 15:00:32
Writing application                      : v20.0.0 ('I Am The Sun') 64-bit
Writing library                          : libebml v1.3.5 + v1.4.8
Cover                                    : Yes
Attachments                              : Cover.jpg

Video
ID                                       : 1
Format                                   : HEVC
Format/Info                              : High Efficiency Video Coding
Format profile                           : Main [email protected]@High
Codec ID                                 : V_MPEGH/ISO/HEVC
Duration                                 : 2 h 7 min
Bit rate                                 : 9 498 kb/s
Width                                    : 1 920 pixels
Height                                   : 804 pixels
Display aspect ratio                     : 2.40:1
Frame rate mode                          : Constant
Frame rate                               : 23.976 (24000/1001) FPS
Color space                              : YUV
Chroma subsampling                       : 4:2:0
Bit depth                                : 10 bits
Bits/(Pixel*Frame)                       : 0.257
Stream size                              : 8.46 GiB (85%)
Title                                    : Людина-павук 2 / Spider-Man 2 (2004) [4K Remaster]
Writing library                          : x265 3.2+5-354901970679:[Windows][clang 8.0.1][64 bit] 10bit
Encoding settings                        : cpuid=1049583 / frame-threads=5 / numa-pools=4 / wpp / no-pmode / no-pme / no-psnr / no-ssim / log-level=3 / input-csp=1 / input-res=1920x804 / interlace=0 / total-frames=0 / level-idc=41 / high-tier=1 / uhd-bd=0 / ref=5 / allow-non-conformance / no-repeat-headers / annexb / no-aud / no-hrd / info / hash=0 / no-temporal-layers / open-gop / min-keyint=24 / keyint=240 / gop-lookahead=0 / bframes=12 / b-adapt=2 / b-pyramid / bframe-bias=0 / rc-lookahead=40 / lookahead-slices=5 / scenecut=40 / radl=0 / no-splice / no-intra-refresh / ctu=32 / min-cu-size=8 / rect / no-amp / max-tu-size=32 / tu-inter-depth=4 / tu-intra-depth=4 / limit-tu=1 / rdoq-level=1 / dynamic-rd=0.00 / no-ssim-rd / signhide / no-tskip / nr-intra=0 / nr-inter=0 / no-constrained-intra / no-strong-intra-smoothing / max-merge=5 / limit-refs=1 / no-limit-modes / me=3 / subme=7 / merange=57 / temporal-mvp / no-frame-dup / no-hme / weightp / no-weightb / no-analyze-src-pics / deblock=-3:-3 / no-sao / no-sao-non-deblock / rd=4 / selective-sao=0 / early-skip / no-rskip / no-fast-intra / no-tskip-fast / no-cu-lossless / b-intra / no-splitrd-skip / rdpenalty=0 / psy-rd=2.00 / psy-rdoq=1.00 / no-rd-refine / no-lossless / cbqpoffs=0 / crqpoffs=0 / rc=crf / crf=22.0 / qcomp=0.60 / qpstep=4 / stats-write=0 / stats-read=0 / vbv-maxrate=50000 / vbv-bufsize=50000 / vbv-init=0.9 / crf-max=0.0 / crf-min=0.0 / ipratio=1.40 / pbratio=1.30 / aq-mode=3 / aq-strength=1.00 / no-cutree / zone-count=0 / no-strict-cbr / qg-size=32 / no-rc-grain / qpmax=69 / qpmin=0 / no-const-vbv / sar=1 / overscan=0 / videoformat=5 / range=0 / colorprim=1 / transfer=1 / colormatrix=1 / chromaloc=0 / display-window=0 / cll=0,0 / min-luma=0 / max-luma=1023 / log2-max-poc-lsb=8 / vui-timing-info / vui-hrd-info / slices=1 / no-opt-qp-pps / no-opt-ref-list-length-pps / no-multi-pass-opt-rps / scenecut-bias=0.05 / no-opt-cu-delta-qp / no-aq-motion / no-hdr / no-hdr-opt / no-dhdr10-opt / no-idr-recovery-sei / analysis-reuse-level=5 / scale-factor=0 / refine-intra=0 / refine-inter=0 / refine-mv=1 / refine-ctu-distortion=0 / no-limit-sao / ctu-info=0 / no-lowpass-dct / refine-analysis-type=0 / copy-pic=1 / max-ausize-factor=1.0 / no-dynamic-refine / no-single-sei / no-hevc-aq / no-svt / no-field / qp-adaptation-range=1.00
Default                                  : Yes
Forced                                   : No
Color range                              : Limited
Color primaries                          : BT.709
Transfer characteristics                 : BT.709
Matrix coefficients                      : BT.709

Audio #1
ID                                       : 2
Format                                   : AC-3
Format/Info                              : Audio Coding 3
Commercial name                          : Dolby Digital
Codec ID                                 : A_AC3
Duration                                 : 2 h 7 min
Bit rate mode                            : Constant
Bit rate                                 : 192 kb/s
Channel(s)                               : 2 channels
Channel layout                           : L R
Sampling rate                            : 48.0 kHz
Frame rate                               : 31.250 FPS (1536 SPF)
Bit depth                                : 16 bits
Compression mode                         : Lossy
Stream size                              : 175 MiB (2%)
Title                                    : / 2.0 Ch / 192 kbps / БЗ / Kanal Ukraina / Так Треба Продакшн
Language                                 : Ukrainian
Service kind                             : Complete Main
Default                                  : Yes
Forced                                   : Yes

Audio #2
ID                                       : 3
Format                                   :
Format/Info                              : Digital Theater Systems
Codec ID                                 : A_DTS
Duration                                 : 2 h 7 min
Bit rate mode                            : Constant
Bit rate                                 : 1 509 kb/s
Channel(s)                               : 6 channels
Channel layout                           : C L R Ls Rs LFE
Sampling rate                            : 48.0 kHz
Frame rate                               : 93.750 FPS (512 SPF)
Bit depth                                : 16 bits
Compression mode                         : Lossy
Stream size                              : 1.34 GiB (13%)
Title                                    : / 5.1 Ch / 1509 kbps / Original
Language                                 : English
Default                                  : No
Forced                                   : No

Text #1
ID                                       : 4
Format                                   : UTF-8
Codec ID                                 : S_TEXT/UTF8
Codec ID/Info                            : UTF-8 Plain Text
Duration                                 : 1 h 58 min
Bit rate                                 : 38 b/s
Count of elements                        : 1094
Stream size                              : 33.5 KiB (0%)
Title                                    : Full
Language                                 : English
Default                                  : No
Forced                                   : No

Text #2
ID                                       : 5
Format                                   : UTF-8
Codec ID                                 : S_TEXT/UTF8
Codec ID/Info                            : UTF-8 Plain Text
Duration                                 : 2 h 5 min
Bit rate                                 : 41 b/s
Count of elements                        : 1357
Stream size                              : 37.9 KiB (0%)
Title                                    : SDH
Language                                 : English
Default                                  : No
Forced                                   : No

Menu
00:00:00.000                             : en:Main Titles
00:03:27.457                             : en:Pizza Man
00:07:24.902                             : en:J. Jonah Jameson
00:08:52.823                             : en:Dr. Connors
00:10:06.314                             : en:"Surprise!"
00:14:28.951                             : en:Peter and Mj in the Backyard
00:17:07.443                             : en:Mr. Ditkovich
00:18:55.551                             : en:Otto Octavius
00:22:12.497                             : en:Wash 'n Dry
00:22:50.535                             : en:The Importance of Being Earnest
00:24:23.712                             : en:Car Chase
00:26:22.122                             : en:The Importance of Being on Time
00:28:27.580                             : en:Web Failure
00:29:35.064                             : en:The Elevator
00:31:03.653                             : en:Peter Calls Mj
00:33:09.862                             : en:Otto's Demonstration
00:39:50.513                             : en:Horror Hospital
00:41:50.758                             : en:Ock Awakens to the Horror
00:43:09.128                             : en:New Villain in Town
00:44:40.219                             : en:Doc Ock's Lair
00:46:57.231                             : en:Bank Heist
00:50:01.164                             : en:Battle Building
00:53:02.262                             : en:Planetarium Party
00:58:04.772                             : en:Spidey Crash Lands in Alley
00:59:36.281                             : en:Ock Rebuilds
01:00:01.472                             : en:Diagnosis
01:01:31.270                             : en:Spider-Man No More
01:03:40.399                             : en:"Raindrops Keep Falling on My Head"
01:05:24.420                             : en:Peter Attends Mj's Play
01:08:14.423                             : en:Jameson Gets the Suit
01:09:40.676                             : en:Peter's Confession
01:13:48.424                             : en:One More Little Chore
01:16:42.347                             : en:Peter and the Burning Building
01:19:16.168                             : en:Frustration
01:21:25.964                             : en:Peter and Aunt May in the Backyard
01:25:16.194                             : en:"My Back! My Back!"
01:26:49.370                             : en:Mj Doubts John's The One
01:28:11.286                             : en:"Do You Love Me, or Not?"
01:30:40.143                             : en:Enter the Octopus
01:33:05.162                             : en:He's Back
01:34:12.772                             : en:Clock Tower Fight
01:35:10.871                             : en:The Train
01:37:12.368                             : en:A Train to Catch
01:39:56.448                             : en:Grateful Train Passengers
01:42:38.610                             : en:Harry Learns the Truth About Peter
01:44:52.828                             : en:The Final Confrontation
01:48:03.643                             : en:Peter Appeals to Otto
01:53:07.614                             : en:Web Love
01:55:30.173                             : en:The Return of the Green Goblin
01:57:56.903                             : en:Here Comes the Bride
02:01:54.473                             : en:The Final Swing
02:02:44.148                             : en:End Credits
Світлини



3. Людина-павук. Ворог у тіні / Людина-павук 3. Ворог у відбитті / Spider-Man 3 (2007) (4K Remastered) UHD 1080p H.265 2xUkr/Eng | Sub Eng
Людина-павук. Ворог у тіні / Людина-павук 3. Ворог у відбитті / Spider-Man 3 (2007) [4K Remastered] UHD 1080p H.265 2xUkr/Eng | Sub Eng

Людина-павук: Трилогія / Spider-Man: Trilogy (2002/2004/2007) 1080p H.265 Ukr/Eng | Sub Eng


Жанр: кінокомікс, фантастика, бойовик
Країна: США
Кінокомпанія: Columbia Pictures, Marvel Studios, Laura Ziskin Productions
Режисер: Сем Реймі
Актори: Тобі Магвайр, Кірстен Данст, Джеймс Франко, Томас Гейден Черч, Тофер Ґрейс, Брайс Даллас Говард, Розмарі Гарріс, Дж. К. Сіммонс, Джеймс Кромвелл, Тереза Расселл, Елізабет Бенкс

Сюжет:
Пітер Паркер, здається, прекрасно навчився жити декількома життями. Він добре вчиться, Нью-Йорк визнав його героєм, стосунки з Мері Джейн міцні. Пітер навіть має намір зробити їй пропозицію! Але на жаль, його друг Гаррі Озборн як і раніше вважає, що саме Людина-павук винний у смерті його батька. Гаррі має намір помститися йому в образі нового Ґобліна. У той же час на кримінальній сцені Нью-Йорка з'являється інший могутній лиходій. Коли Людина-павук одягає таємничий чорний костюм, його темна мстива сторона повністю поглинає його. Ці переміни примушують його зустрітися з найсильнішим ворогом: із самим собою...

Тривалість: 02:19:10
Якість:

Відео:
кодек: H.265 (HEVC)
розмір кадру: 1920 x 804
бітрейт: 12 666 кб/с
бітова глибина: 10 біт

Увага! Перед завантаженням переконайтесь, що ваш пристрій відтворення (та/або ПЗ) підтримує H.265 (HEVC)

Аудіо # 1:
мова: українська
переклад: професійний дубльований
кодек: AC-3 5.1
бітрейт: 384 кб/с

Аудіо # 2:
мова: українська
переклад: багатоголосий закадровий
кодек: AC-3 2.0
бітрейт: 192 кб/с

Аудіо # 3:
мова: англійська
переклад: оригінал
кодек: 5.1
бітрейт: 1510 кб/с

Аудіо # 4:
мова: англійська
переклад: оригінал | коментарі
кодек: AC-3 2.0
бітрейт: 192 кб/с

Аудіо # 5:
мова: англійська
переклад: оригінал | коментарі
кодек: AC-3 2.0
бітрейт: 192 кб/с

Субтитри # 1-4: (Full, SDH, Commentary with Director and Cast, Commentary with Filmmakers)
мова: англійська
тип: програмні (м'які)
формат: *.srt


Info
Код:
General
Unique ID                                : 182426860979987170654161607058488481769 (0x893E22AB075FCF72293C9D28DD1ED7E9)
Complete name                            : 03. Spider-Man 3 (2007) UHD 1080p H.265 [2xUKR_ENG] [Hurtom].
Format                                   :
Format version                           : Version 4
File size                                : 14.7 GiB
Duration                                 : 2 h 19 min
Overall bit rate                         : 15.1 Mb/s
Movie name                               : Людина-павук. Ворог у тіні / Людина-павук 3. Ворог у відбитті / Spider-Man 3 (2007)
Encoded date                             : UTC 2020-01-03 18:57:42
Writing application                      : v20.0.0 ('I Am The Sun') 64-bit
Writing library                          : libebml v1.3.5 + v1.4.8
Cover                                    : Yes
Attachments                              : Cover.jpg

Video
ID                                       : 1
Format                                   : HEVC
Format/Info                              : High Efficiency Video Coding
Format profile                           : Main [email protected]@High
Codec ID                                 : V_MPEGH/ISO/HEVC
Duration                                 : 2 h 19 min
Bit rate                                 : 12.7 Mb/s
Width                                    : 1 920 pixels
Height                                   : 804 pixels
Display aspect ratio                     : 2.40:1
Frame rate mode                          : Constant
Frame rate                               : 23.976 (24000/1001) FPS
Color space                              : YUV
Chroma subsampling                       : 4:2:0
Bit depth                                : 10 bits
Bits/(Pixel*Frame)                       : 0.342
Stream size                              : 12.3 GiB (84%)
Title                                    : Людина-павук. Ворог у тіні / Людина-павук 3. Ворог у відбитті / Spider-Man 3 (2007)
Writing library                          : x265 3.2+5-354901970679:[Windows][clang 8.0.1][64 bit] 10bit
Encoding settings                        : cpuid=1049583 / frame-threads=5 / numa-pools=4 / wpp / no-pmode / no-pme / no-psnr / no-ssim / log-level=3 / input-csp=1 / input-res=1920x804 / interlace=0 / total-frames=0 / level-idc=41 / high-tier=1 / uhd-bd=0 / ref=5 / allow-non-conformance / no-repeat-headers / annexb / no-aud / no-hrd / info / hash=0 / no-temporal-layers / open-gop / min-keyint=24 / keyint=240 / gop-lookahead=0 / bframes=12 / b-adapt=2 / b-pyramid / bframe-bias=0 / rc-lookahead=40 / lookahead-slices=5 / scenecut=40 / radl=0 / no-splice / no-intra-refresh / ctu=32 / min-cu-size=8 / rect / no-amp / max-tu-size=32 / tu-inter-depth=4 / tu-intra-depth=4 / limit-tu=1 / rdoq-level=1 / dynamic-rd=0.00 / no-ssim-rd / signhide / no-tskip / nr-intra=0 / nr-inter=0 / no-constrained-intra / no-strong-intra-smoothing / max-merge=5 / limit-refs=1 / no-limit-modes / me=3 / subme=7 / merange=57 / temporal-mvp / no-frame-dup / no-hme / weightp / no-weightb / no-analyze-src-pics / deblock=-3:-3 / no-sao / no-sao-non-deblock / rd=4 / selective-sao=0 / early-skip / no-rskip / no-fast-intra / no-tskip-fast / no-cu-lossless / b-intra / no-splitrd-skip / rdpenalty=0 / psy-rd=2.00 / psy-rdoq=1.00 / no-rd-refine / no-lossless / cbqpoffs=0 / crqpoffs=0 / rc=crf / crf=20.0 / qcomp=0.60 / qpstep=4 / stats-write=0 / stats-read=0 / vbv-maxrate=50000 / vbv-bufsize=50000 / vbv-init=0.9 / crf-max=0.0 / crf-min=0.0 / ipratio=1.40 / pbratio=1.30 / aq-mode=3 / aq-strength=1.00 / no-cutree / zone-count=0 / no-strict-cbr / qg-size=32 / no-rc-grain / qpmax=69 / qpmin=0 / no-const-vbv / sar=1 / overscan=0 / videoformat=5 / range=0 / colorprim=1 / transfer=1 / colormatrix=1 / chromaloc=0 / display-window=0 / cll=0,0 / min-luma=0 / max-luma=1023 / log2-max-poc-lsb=8 / vui-timing-info / vui-hrd-info / slices=1 / no-opt-qp-pps / no-opt-ref-list-length-pps / no-multi-pass-opt-rps / scenecut-bias=0.05 / no-opt-cu-delta-qp / no-aq-motion / no-hdr / no-hdr-opt / no-dhdr10-opt / no-idr-recovery-sei / analysis-reuse-level=5 / scale-factor=0 / refine-intra=0 / refine-inter=0 / refine-mv=1 / refine-ctu-distortion=0 / no-limit-sao / ctu-info=0 / no-lowpass-dct / refine-analysis-type=0 / copy-pic=1 / max-ausize-factor=1.0 / no-dynamic-refine / no-single-sei / no-hevc-aq / no-svt / no-field / qp-adaptation-range=1.00
Language                                 : English
Default                                  : Yes
Forced                                   : No
Color range                              : Limited
Color primaries                          : BT.709
Transfer characteristics                 : BT.709
Matrix coefficients                      : BT.709

Audio #1
ID                                       : 2
Format                                   : AC-3
Format/Info                              : Audio Coding 3
Commercial name                          : Dolby Digital
Codec ID                                 : A_AC3
Duration                                 : 2 h 19 min
Bit rate mode                            : Constant
Bit rate                                 : 384 kb/s
Channel(s)                               : 6 channels
Channel layout                           : L R C LFE Ls Rs
Sampling rate                            : 48.0 kHz
Frame rate                               : 31.250 FPS (1536 SPF)
Bit depth                                : 16 bits
Compression mode                         : Lossy
Stream size                              : 382 MiB (3%)
Title                                    : / 5.1 Ch / 384 kbps / ПД / DVD
Language                                 : Ukrainian
Service kind                             : Complete Main
Default                                  : Yes
Forced                                   : Yes

Audio #2
ID                                       : 3
Format                                   : AC-3
Format/Info                              : Audio Coding 3
Commercial name                          : Dolby Digital
Codec ID                                 : A_AC3
Duration                                 : 2 h 19 min
Bit rate mode                            : Constant
Bit rate                                 : 192 kb/s
Channel(s)                               : 2 channels
Channel layout                           : L R
Sampling rate                            : 48.0 kHz
Frame rate                               : 31.250 FPS (1536 SPF)
Bit depth                                : 16 bits
Compression mode                         : Lossy
Stream size                              : 191 MiB (1%)
Title                                    : / 2.0 Ch / 192 kbps / БЗ / Inter / Так Треба Продакшн
Language                                 : Ukrainian
Service kind                             : Complete Main
Default                                  : No
Forced                                   : No

Audio #3
ID                                       : 4
Format                                   :
Format/Info                              : Digital Theater Systems
Codec ID                                 : A_DTS
Duration                                 : 2 h 19 min
Bit rate mode                            : Constant
Bit rate                                 : 1 509 kb/s
Channel(s)                               : 6 channels
Channel layout                           : C L R Ls Rs LFE
Sampling rate                            : 48.0 kHz
Frame rate                               : 93.750 FPS (512 SPF)
Bit depth                                : 24 bits
Compression mode                         : Lossy
Stream size                              : 1.47 GiB (10%)
Title                                    : / 5.1 Ch / 1509 kbps / Original
Language                                 : English
Default                                  : No
Forced                                   : No

Audio #4
ID                                       : 5
Format                                   : AC-3
Format/Info                              : Audio Coding 3
Commercial name                          : Dolby Digital
Codec ID                                 : A_AC3
Duration                                 : 2 h 19 min
Bit rate mode                            : Constant
Bit rate                                 : 192 kb/s
Channel(s)                               : 2 channels
Channel layout                           : L R
Sampling rate                            : 48.0 kHz
Frame rate                               : 31.250 FPS (1536 SPF)
Bit depth                                : 16 bits
Compression mode                         : Lossy
Stream size                              : 191 MiB (1%)
Title                                    : / 2.0 Ch / 192 kbps / Original / Commentary with Director and Cast
Language                                 : English
Service kind                             : Complete Main
Default                                  : No
Forced                                   : No

Audio #5
ID                                       : 6
Format                                   : AC-3
Format/Info                              : Audio Coding 3
Commercial name                          : Dolby Digital
Codec ID                                 : A_AC3
Duration                                 : 2 h 19 min
Bit rate mode                            : Constant
Bit rate                                 : 192 kb/s
Channel(s)                               : 2 channels
Channel layout                           : L R
Sampling rate                            : 48.0 kHz
Frame rate                               : 31.250 FPS (1536 SPF)
Bit depth                                : 16 bits
Compression mode                         : Lossy
Stream size                              : 191 MiB (1%)
Title                                    : / 2.0 Ch / 192 kbps / Original / Commentary with Filmmakers
Language                                 : English
Service kind                             : Complete Main
Default                                  : No
Forced                                   : No

Text #1
ID                                       : 7
Format                                   : UTF-8
Codec ID                                 : S_TEXT/UTF8
Codec ID/Info                            : UTF-8 Plain Text
Duration                                 : 2 h 15 min
Bit rate                                 : 36 b/s
Count of elements                        : 1149
Stream size                              : 35.9 KiB (0%)
Title                                    : Full
Language                                 : English
Default                                  : No
Forced                                   : No

Text #2
ID                                       : 8
Format                                   : UTF-8
Codec ID                                 : S_TEXT/UTF8
Codec ID/Info                            : UTF-8 Plain Text
Duration                                 : 2 h 18 min
Bit rate                                 : 46 b/s
Count of elements                        : 1611
Stream size                              : 47.1 KiB (0%)
Title                                    : SDH
Language                                 : English
Default                                  : No
Forced                                   : No

Text #3
ID                                       : 9
Format                                   : UTF-8
Codec ID                                 : S_TEXT/UTF8
Codec ID/Info                            : UTF-8 Plain Text
Duration                                 : 2 h 18 min
Bit rate                                 : 107 b/s
Count of elements                        : 2348
Stream size                              : 109 KiB (0%)
Title                                    : Commentary with Director and Cast
Language                                 : English
Default                                  : No
Forced                                   : No

Text #4
ID                                       : 10
Format                                   : UTF-8
Codec ID                                 : S_TEXT/UTF8
Codec ID/Info                            : UTF-8 Plain Text
Duration                                 : 2 h 18 min
Bit rate                                 : 111 b/s
Count of elements                        : 2170
Stream size                              : 113 KiB (0%)
Title                                    : Commentary with Filmmakers
Language                                 : English
Default                                  : No
Forced                                   : No

Menu
00:00:00.000                             : en:01. Main Title
00:03:11.524                             : en:02. NY Loves Spidey
00:04:39.737                             : en:03. It's Wonderful
00:07:59.770                             : en:04. The Goblin's Lair
00:08:33.679                             : en:05. Web Love
00:10:30.254                             : en:06. Flint Marko
00:13:54.708                             : en:07. Give Her This
00:16:55.013                             : en:08. Peter vs. Harry
00:22:24.301                             : en:09. Marko Atomized
00:24:44.941                             : en:10. Some Memory Impairment
00:27:11.546                             : en:11. Birth of Sandman
00:30:12.644                             : en:12. The Review
00:32:31.240                             : en:13. Crane Disaster
00:36:10.334                             : en:14. Daily Bugle
00:39:43.964                             : en:15. 'nuff Said
00:40:08.489                             : en:16. Welcome Home Harry!
00:41:43.209                             : en:17. One Critic?
00:43:20.014                             : en:18. Key to the City
00:44:43.472                             : en:19. Sand Truck
00:46:39.004                             : en:20. A Good Show
00:49:24.544                             : en:21. Armored Car
00:51:53.151                             : en:22. Engagement Dinner
00:59:27.730                             : en:23. We Were Wrong
01:03:30.473                             : en:24. The Symbiote Strikes
01:06:34.532                             : en:25. Bank Robbery
01:08:07.416                             : en:26. Subway
01:10:45.824                             : en:27. Like a Prison
01:13:50.592                             : en:28. Lonely Girl
01:15:23.393                             : en:29. Calling a Woman
01:16:42.264                             : en:30. A Little Self Deception
01:19:21.715                             : en:31. Attack His Heart!
01:22:16.681                             : en:32. It's Over
01:24:21.347                             : en:33. The Other Guy
01:27:08.348                             : en:34. Strawberries
01:30:17.787                             : en:35. Dirt in Your Eye
01:32:43.474                             : en:36. Bad Peter
01:35:14.375                             : en:37. Return of the Sandman
01:35:53.497                             : en:38. Jazz Club
01:40:46.331                             : en:39. the Bell Tower
01:44:15.624                             : en:40. Forgive Yourself
01:47:20.225                             : en:41. The Team-Up
01:49:10.794                             : en:42. City in Crisis
01:52:52.724                             : en:43. The Return of Spider-Man
01:56:34.570                             : en:44. The Giant Sandman
01:59:57.106                             : en:45. Film's Extra
02:00:28.346                             : en:46. Team-Work
02:02:26.756                             : en:47. Spidey vs. Venom
02:04:29.378                             : en:48. Sound Cage
02:06:11.313                             : en:49. I Didn't Want This
02:09:33.474                             : en:50. You're My Friend
02:11:56.491                             : en:51. You or No One
02:13:59.197                             : en:52. End Credits
Світлини




Джерело: &
Особиста оцінка: 10 - без зайвих вагань рекомендую всім!


Срібний реліз (на рейтинг впливає 50% завантаженого)
 Трекер:    Зареєстрований   

Завантажити / скачати фільм українською



відео для новачків



 Зареєстрований:   2020-01-07 17:53
 Розмір:   39.13 GB 
 Оцінка фільму:   10/10 (Голосів: 14)
   
[email protected] 
VIP


З нами з: 25.03.17
Востаннє: 21.09.20
Повідомлень: 551

2020-02-08 17:43  
Класна трилогія.
Ваш часовий пояс: GMT + 2 Години

Нова тема   Відповісти