Місто Гріхів / Sin City (2005) Remux 1080p 6xUkr/Eng | Sub Eng

Нові коментарі

Нова тема   Відповісти
Автор Повідомлення
Anonymous 







2020-01-07 02:52  
Місто Гріхів / Sin City (2005) Remux 1080p 6xUkr/Eng | Sub Eng

Місто Гріхів / Sin City (2005) Remux 1080p 6xUkr/Eng | Sub Eng


Жанр: кримінальний, трилер
Країна: США
Кінокомпанія: Dimension Films, Troublemaker Studios
Режисер: Френк Міллер (Frank Miller), Роберт Родріґес (Robert Rodriguez), Квентін Тарантіно (Quentin Tarantino)
Актори: Джесіка Альба (Jessica Alba), Девон Аокі (Devon Aoki), Алексіс Бледел (Alexis Bledel), Розаріо Доусон (Rosario Dawson), Бенісіо Дель Торо (Benicio Del Toro), Майкл Кларк Данкен (Michael Clarke Duncan), Джош Хартнетт (Josh Hartnett), Карла Гуджино (Carla Gugino), Рутгер Гауер (Rutger Hauer), Джеймі Кінг (Jaime King), Бріттані Мерфі (Brittany Murphy), Клайв Овен (Clive Owen), Міккі Рурк (Mickey Rourke), Нік Сталь (Nick Stahl), Брюс Вілліс (Bruce Willis), Елайджа Вуд (Elijah Wood) та інші.

Сюжет:
Місто гріхів - місто повне насильства, місцева поліція загрузнула в корупції, а прогулянка по ньому цілком може стати для Вас смертельною. У фільмі ми стежимо за трьома історіями, центральна з яких історія Мавра.

Для Марва, загартованого життям по законах вулиць, все це не проблема. Схоже, що ніщо в цьому житті не може його налякати або розжалобити. Але одного разу вранці в його двері стукається біда, справиться з якою виявляється не так і просто. Прокинувшись, він виявляє, що його нова знайома Ґолді, лежить поряд з ним убита. Це підштовхує Марва встати на стежку.

Тривалість: 02:04:01
Якість: Remux (JPN Transfer)

Відео:
кодек:
розмір кадру: 1920 x 1080
бітрейт: 28 364 кб/с

Аудіо # 1:
мова: українська
переклад: професійний дубльований
кодек: AC-3 2.0
бітрейт: 192 кб/с

Аудіо # 2:
мова: українська
переклад: багатоголосий закадровий
кодек: AC-3 2.0
бітрейт: 192 кб/с

Аудіо # 3:
мова: українська
переклад: багатоголосий закадровий
кодек: AC-3 2.0
бітрейт: 192 кб/с

Аудіо # 4:
мова: українська
переклад: багатоголосий закадровий
кодек: AC-3 2.0
бітрейт: 192 кб/с

Аудіо # 5:
мова: українська
переклад: двоголосий закадровий
кодек: AC-3 2.0
бітрейт: 192 кб/с

Аудіо # 6:
мова: українська
переклад: двоголосий закадровий
кодек: AC-3 2.0
бітрейт: 192 кб/с

Аудіо # 7:
мова: англійська
переклад: оригінал
кодек: -HD Master 7.1
бітрейт: 5620 кб/с

Аудіо # 8:
мова: англійська
переклад: оригінал | коментарі
кодек: AC-3 2.0
бітрейт: 256 кб/с

Аудіо # 9:
мова: англійська
переклад: оригінал | коментарі
кодек: AC-3 2.0
бітрейт: 256 кб/с

Субтитри # 1: (Forced)
мова: українська
тип: програмні (м'які)
формат: *.srt

Субтитри # 2-3: (Full, SDH)
мова: англійська
тип: програмні (м'які)
формат: *.srt


Info
Код:
General
Unique ID                                : 320976415056971009112332013294007780129 (0xF179CF15620C227B214186652C6A8321)
Complete name                            : Sin City (2005) [JPN Transfer] Remux 1080p [6xUKR_ENG] [Hurtom].
Format                                   :
Format version                           : Version 4
File size                                : 30.9 GiB
Duration                                 : 2 h 4 min
Overall bit rate mode                    : Variable
Overall bit rate                         : 35.6 Mb/s
Movie name                               : Місто Гріхів / Sin City (2005)
Encoded date                             : UTC 2020-01-06 21:18:41
Writing application                      : v20.0.0 ('I Am The Sun') 64-bit
Writing library                          : libebml v1.3.5 + v1.4.8
Cover                                    : Yes
Attachments                              : Cover.jpg

Video
ID                                       : 1
Format                                   : AVC
Format/Info                              : Advanced Video Codec
Format profile                           : [email protected]
Format settings                          : CABAC / 3 Ref Frames
Format settings, CABAC                   : Yes
Format settings, Reference frames        : 3 frames
Format settings, GOP                     : M=3, N=24
Codec ID                                 : V_MPEG4/ISO/AVC
Duration                                 : 2 h 4 min
Bit rate mode                            : Variable
Bit rate                                 : 28.4 Mb/s
Maximum bit rate                         : 40.0 Mb/s
Width                                    : 1 920 pixels
Height                                   : 1 080 pixels
Display aspect ratio                     : 16:9
Frame rate mode                          : Constant
Frame rate                               : 23.976 (24000/1001) FPS
Color space                              : YUV
Chroma subsampling                       : 4:2:0
Bit depth                                : 8 bits
Scan type                                : Progressive
Bits/(Pixel*Frame)                       : 0.570
Stream size                              : 24.6 GiB (80%)
Title                                    : Місто Гріхів / Sin City (2005)
Default                                  : Yes
Forced                                   : No

Audio #1
ID                                       : 2
Format                                   : AC-3
Format/Info                              : Audio Coding 3
Commercial name                          : Dolby Digital
Codec ID                                 : A_AC3
Duration                                 : 2 h 4 min
Bit rate mode                            : Constant
Bit rate                                 : 192 kb/s
Channel(s)                               : 2 channels
Channel layout                           : L R
Sampling rate                            : 48.0 kHz
Frame rate                               : 31.250 FPS (1536 SPF)
Bit depth                                : 16 bits
Compression mode                         : Lossy
Delay relative to video                  : 16 ms
Stream size                              : 170 MiB (1%)
Title                                    : / 2.0 Ch / 192 kbps / ПД / NLO
Language                                 : Ukrainian
Service kind                             : Complete Main
Default                                  : Yes
Forced                                   : Yes

Audio #2
ID                                       : 3
Format                                   : AC-3
Format/Info                              : Audio Coding 3
Commercial name                          : Dolby Digital
Codec ID                                 : A_AC3
Duration                                 : 2 h 4 min
Bit rate mode                            : Constant
Bit rate                                 : 192 kb/s
Channel(s)                               : 2 channels
Channel layout                           : L R
Sampling rate                            : 48.0 kHz
Frame rate                               : 31.250 FPS (1536 SPF)
Bit depth                                : 16 bits
Compression mode                         : Lossy
Delay relative to video                  : 16 ms
Stream size                              : 170 MiB (1%)
Title                                    : / 2.0 Ch / 192 kbps / БЗ / AMC
Language                                 : Ukrainian
Service kind                             : Complete Main
Default                                  : No
Forced                                   : No

Audio #3
ID                                       : 4
Format                                   : AC-3
Format/Info                              : Audio Coding 3
Commercial name                          : Dolby Digital
Codec ID                                 : A_AC3
Duration                                 : 2 h 3 min
Bit rate mode                            : Constant
Bit rate                                 : 192 kb/s
Channel(s)                               : 2 channels
Channel layout                           : L R
Sampling rate                            : 48.0 kHz
Frame rate                               : 31.250 FPS (1536 SPF)
Bit depth                                : 16 bits
Compression mode                         : Lossy
Delay relative to video                  : 16 ms
Stream size                              : 170 MiB (1%)
Title                                    : / 2.0 Ch / 192 kbps / БЗ / 2+2
Language                                 : Ukrainian
Service kind                             : Complete Main
Default                                  : No
Forced                                   : No

Audio #4
ID                                       : 5
Format                                   : AC-3
Format/Info                              : Audio Coding 3
Commercial name                          : Dolby Digital
Codec ID                                 : A_AC3
Duration                                 : 2 h 3 min
Bit rate mode                            : Constant
Bit rate                                 : 192 kb/s
Channel(s)                               : 2 channels
Channel layout                           : L R
Sampling rate                            : 48.0 kHz
Frame rate                               : 31.250 FPS (1536 SPF)
Bit depth                                : 16 bits
Compression mode                         : Lossy
Delay relative to video                  : 16 ms
Stream size                              : 170 MiB (1%)
Title                                    : / 2.0 Ch / 192 kbps / БЗ / Kanal Ukraina
Language                                 : Ukrainian
Service kind                             : Complete Main
Default                                  : No
Forced                                   : No

Audio #5
ID                                       : 6
Format                                   : AC-3
Format/Info                              : Audio Coding 3
Commercial name                          : Dolby Digital
Codec ID                                 : A_AC3
Duration                                 : 2 h 3 min
Bit rate mode                            : Constant
Bit rate                                 : 192 kb/s
Channel(s)                               : 2 channels
Channel layout                           : L R
Sampling rate                            : 48.0 kHz
Frame rate                               : 31.250 FPS (1536 SPF)
Bit depth                                : 16 bits
Compression mode                         : Lossy
Delay relative to video                  : 16 ms
Stream size                              : 170 MiB (1%)
Title                                    : / 2.0 Ch / 192 kbps / ДЗ / 1+1
Language                                 : Ukrainian
Service kind                             : Complete Main
Default                                  : No
Forced                                   : No

Audio #6
ID                                       : 7
Format                                   : AC-3
Format/Info                              : Audio Coding 3
Commercial name                          : Dolby Digital
Codec ID                                 : A_AC3
Duration                                 : 2 h 3 min
Bit rate mode                            : Constant
Bit rate                                 : 192 kb/s
Channel(s)                               : 2 channels
Channel layout                           : L R
Sampling rate                            : 48.0 kHz
Frame rate                               : 31.250 FPS (1536 SPF)
Bit depth                                : 16 bits
Compression mode                         : Lossy
Delay relative to video                  : 16 ms
Stream size                              : 170 MiB (1%)
Title                                    : / 2.0 Ch / 192 kbps / ДЗ / Novy Kanal
Language                                 : Ukrainian
Service kind                             : Complete Main
Default                                  : No
Forced                                   : No

Audio #7
ID                                       : 8
Format                                   : XLL
Format/Info                              : Digital Theater Systems
Commercial name                          : -HD Master Audio
Codec ID                                 : A_DTS
Duration                                 : 2 h 3 min
Bit rate mode                            : Variable
Bit rate                                 : 5 615 kb/s
Channel(s)                               : 8 channels
Channel layout                           : C L R Ls Rs LFE Lb Rb
Sampling rate                            : 48.0 kHz
Frame rate                               : 93.750 FPS (512 SPF)
Bit depth                                : 24 bits
Compression mode                         : Lossless
Stream size                              : 4.86 GiB (16%)
Title                                    : -HD Master / 7.1 Ch / 5614 kbps / Original
Language                                 : English
Default                                  : No
Forced                                   : No

Audio #8
ID                                       : 9
Format                                   : AC-3
Format/Info                              : Audio Coding 3
Commercial name                          : Dolby Digital
Codec ID                                 : A_AC3
Duration                                 : 2 h 4 min
Bit rate mode                            : Constant
Bit rate                                 : 256 kb/s
Channel(s)                               : 2 channels
Channel layout                           : L R
Sampling rate                            : 48.0 kHz
Frame rate                               : 31.250 FPS (1536 SPF)
Bit depth                                : 16 bits
Compression mode                         : Lossy
Delay relative to video                  : 20 ms
Stream size                              : 227 MiB (1%)
Title                                    : / 2.0 Ch / 256 kbps / Original / Commentary
Language                                 : English
Service kind                             : Complete Main
Default                                  : No
Forced                                   : No

Audio #9
ID                                       : 10
Format                                   : AC-3
Format/Info                              : Audio Coding 3
Commercial name                          : Dolby Digital
Codec ID                                 : A_AC3
Duration                                 : 2 h 4 min
Bit rate mode                            : Constant
Bit rate                                 : 256 kb/s
Channel(s)                               : 2 channels
Channel layout                           : L R
Sampling rate                            : 48.0 kHz
Frame rate                               : 31.250 FPS (1536 SPF)
Bit depth                                : 16 bits
Compression mode                         : Lossy
Delay relative to video                  : 20 ms
Stream size                              : 227 MiB (1%)
Title                                    : / 2.0 Ch / 256 kbps / Original / Commentary
Language                                 : English
Service kind                             : Complete Main
Default                                  : No
Forced                                   : No

Text #1
ID                                       : 11
Format                                   : UTF-8
Codec ID                                 : S_TEXT/UTF8
Codec ID/Info                            : UTF-8 Plain Text
Duration                                 : 1 min 0 s
Bit rate                                 : 109 b/s
Count of elements                        : 17
Stream size                              : 826 Bytes (0%)
Title                                    : Forced
Language                                 : Ukrainian
Default                                  : Yes
Forced                                   : Yes

Text #2
ID                                       : 12
Format                                   : UTF-8
Codec ID                                 : S_TEXT/UTF8
Codec ID/Info                            : UTF-8 Plain Text
Duration                                 : 1 h 57 min
Bit rate                                 : 75 b/s
Count of elements                        : 1708
Stream size                              : 64.7 KiB (0%)
Title                                    : Full
Language                                 : English
Default                                  : No
Forced                                   : No

Text #3
ID                                       : 13
Format                                   : UTF-8
Codec ID                                 : S_TEXT/UTF8
Codec ID/Info                            : UTF-8 Plain Text
Duration                                 : 1 h 57 min
Bit rate                                 : 76 b/s
Count of elements                        : 1704
Stream size                              : 65.4 KiB (0%)
Title                                    : SDH
Language                                 : English
Default                                  : No
Forced                                   : No

Menu
00:00:00.000                             : en:The Customer Is Always Right
00:02:59.721                             : en:Sin City
00:04:52.042                             : en:Hartigan
00:13:02.782                             : en:"Her Name Is Goldie"
00:16:39.707                             : en:Lucille
00:18:37.908                             : en:Mary
00:24:35.307                             : en:The Farm
00:30:21.820                             : en:"What If I'm Wrong?"
00:34:24.896                             : en:The Hard Goodbye
00:43:53.631                             : en:"Is That the Best You Can Do, Pansies?"
00:47:19.461                             : en:Shellie
00:51:58.532                             : en:Dwight
00:55:13.185                             : en:Old Town
00:58:51.861                             : en:Deadly Little Miho
01:02:21.779                             : en:Warrior Woman
01:07:32.006                             : en:Designated Driver
01:11:46.594                             : en:The Pits
01:17:13.629                             : en:Jackie Boy's Head
01:20:11.556                             : en:The Big Fat Kill
01:26:31.436                             : en:Senator Roark
01:30:12.281                             : en:Letters From Cordelia
01:33:21.679                             : en:This Guy Smells Awful
01:37:15.454                             : en:That Yellow Bastard
01:42:15.671                             : en:Kiss of Death
01:49:18.301                             : en:Killing of the Snake
01:54:39.122                             : en:Fair Trade
01:56:45.873                             : en:Becky
01:57:47.310                             : en:End Credits
Світлини




Джерело: &
Особиста оцінка: 0 - не дивився


Золотий реліз (завантажене не впливає на рейтинг)
 Трекер:    Зареєстрований   

Завантажити / скачати фільм українською



відео для новачків



 Зареєстрований:   2020-01-07 03:01
 Розмір:   30.88 GB 
 Оцінка фільму:   9/10 (Голосів: 9)
   
Інші релізи
   Місто Гріхів / Sin City (2005) AVC 6xUkr/Eng | Sub Eng omm  5 / 0   3.77 GB   2019-08-18 10:38 
   Місто гріхів / Sin City (2005) 720p 4xUkr/Eng | Sub Eng Бондіко  8 / 0   8.04 GB   2014-11-22 18:34 
   Місто Гріхів / Sin City (2005) 4xUkr patriot2305  3 / 0   1.8 GB   2013-06-12 17:46 
   Місто Гріхів / Sin City (2005) 4xUkr/Eng robotron005  7 / 2   2.52 GB   2012-10-10 21:47 
   Місто Гріхів / Sin City (2005) 720p-mini 2xUkr Zeus62  6 / 0   2.54 GB   2011-11-14 12:20 
   Місто гріхів / Sin City [Recut Extended Unrated] (2005) 2xUkr/Eng Romario_O  1 / 0   2.88 GB   2010-01-02 22:43 
staf777 
Відео Гуртом - підтримка та поширення
Відео Гуртом - підтримка та поширення


З нами з: 16.11.16
Востаннє: 21.09.20
Повідомлень: 4022

2020-01-07 15:50  
Доріжки на будь який смак - побільше би таких релізів
Ваш часовий пояс: GMT + 2 Години

Нова тема   Відповісти