Місто гріхів 2: Жінка, заради якої варто вбивати / Sin City: A Dame to Kill For (2014) Remux 1080p Ukr/Eng | Sub Eng

Нові коментарі

Нова тема   Відповісти
Останній раз роздавалося yurikbalakar (2020-01-13)
Автор Повідомлення
Anonymous 







2020-01-07 02:51  
Місто гріхів 2: Жінка, заради якої варто вбивати / Sin City: A Dame to Kill For (2014) Remux 1080p Ukr/Eng | Sub Eng

Місто гріхів 2: Жінка, заради якої варто вбивати / Sin City: A Dame to Kill For (2014) Remux 1080p Ukr/Eng | Sub Eng


Жанр: бойовик, кримінальний, трилер
Країна: США
Кінокомпанія: Aldamisa Entertainment, Demarest Films, Miramax Films, Quick Draw Productions, Solipsist Film, Troublemaker Studios
Режисер: Френк Міллер, Роберт Родрігес
Актори: Єва Грін, Міккі Рурк, Джош Бролін, Джессіка Альба, Джозеф Гордон-Левітт, Розаріо Доусон, Пауерс Бут, Денніс Хейсберт, Джеймі Чунг, Брюс Вілліс

Сюжет:
У темних провулках Міста Гріхів Дуайт планує жорстоко помститися жінці на ім'я Ава Лорд, яка його зрадила, у той час як Ненсі намагається змиритися зі смертю детектива Хартігана.

Тривалість: 01:42:08
Якість: Remux

Відео:
кодек:
розмір кадру: 1920 x 1080
бітрейт: 26 368 кб/с

Аудіо # 1:
мова: українська
переклад: професійний дубльований
кодек: AC-3 2.0
бітрейт: 192 кб/с

Аудіо # 2:
мова: англійська
переклад: оригінал
кодек: -HD MA 5.1
бітрейт: 4182 кб/с

Субтитри # 1-3: (Full, SDH, SDH-Colored)
мова: англійська
тип: програмні (м'які)
формат: *.srt


Info
Код:
General
Unique ID                                : 171600532881350403898817516480187823990 (0x81190F7B487564E99B0A600070477776)
Complete name                            : Sin City. A Dame to Kill For (2014) Remux 1080p [UKR_ENG] [Hurtom].
Format                                   :
Format version                           : Version 4
File size                                : 21.9 GiB
Duration                                 : 1 h 42 min
Overall bit rate mode                    : Variable
Overall bit rate                         : 30.7 Mb/s
Movie name                               : Місто гріхів 2: Жінка, заради якої варто вбивати / Sin City: A Dame to Kill For (2014)
Encoded date                             : UTC 2020-01-06 20:42:36
Writing application                      : v20.0.0 ('I Am The Sun') 64-bit
Writing library                          : libebml v1.3.5 + v1.4.8
Cover                                    : Yes
Attachments                              : cover.jpg

Video
ID                                       : 1
Format                                   : AVC
Format/Info                              : Advanced Video Codec
Format profile                           : [email protected]
Format settings                          : CABAC / 2 Ref Frames
Format settings, CABAC                   : Yes
Format settings, Reference frames        : 2 frames
Format settings, GOP                     : M=1, N=10
Codec ID                                 : V_MPEG4/ISO/AVC
Duration                                 : 1 h 42 min
Bit rate mode                            : Variable
Bit rate                                 : 26.4 Mb/s
Width                                    : 1 920 pixels
Height                                   : 1 080 pixels
Display aspect ratio                     : 16:9
Frame rate mode                          : Constant
Frame rate                               : 23.976 (24000/1001) FPS
Color space                              : YUV
Chroma subsampling                       : 4:2:0
Bit depth                                : 8 bits
Scan type                                : Progressive
Bits/(Pixel*Frame)                       : 0.530
Stream size                              : 18.8 GiB (86%)
Title                                    : Місто гріхів 2: Жінка, заради якої варто вбивати / Sin City: A Dame to Kill For (2014)
Language                                 : English
Default                                  : Yes
Forced                                   : No

Audio #1
ID                                       : 2
Format                                   : AC-3
Format/Info                              : Audio Coding 3
Commercial name                          : Dolby Digital
Codec ID                                 : A_AC3
Duration                                 : 1 h 42 min
Bit rate mode                            : Constant
Bit rate                                 : 192 kb/s
Channel(s)                               : 2 channels
Channel layout                           : L R
Sampling rate                            : 48.0 kHz
Frame rate                               : 31.250 FPS (1536 SPF)
Bit depth                                : 16 bits
Compression mode                         : Lossy
Stream size                              : 140 MiB (1%)
Title                                    : / 2.0 Ch / 192 kbps / ПД / Line
Language                                 : Ukrainian
Service kind                             : Complete Main
Default                                  : Yes
Forced                                   : Yes

Audio #2
ID                                       : 3
Format                                   : XLL
Format/Info                              : Digital Theater Systems
Commercial name                          : -HD Master Audio
Codec ID                                 : A_DTS
Duration                                 : 1 h 42 min
Bit rate mode                            : Variable
Bit rate                                 : 4 179 kb/s
Channel(s)                               : 6 channels
Channel layout                           : C L R Ls Rs LFE
Sampling rate                            : 48.0 kHz
Frame rate                               : 93.750 FPS (512 SPF)
Bit depth                                : 24 bits
Compression mode                         : Lossless
Stream size                              : 2.98 GiB (14%)
Title                                    : -HD MA / 5.1 Ch / 4179 kbps / Original
Language                                 : English
Default                                  : No
Forced                                   : No

Text #1
ID                                       : 4
Format                                   : UTF-8
Codec ID                                 : S_TEXT/UTF8
Codec ID/Info                            : UTF-8 Plain Text
Duration                                 : 1 h 34 min
Bit rate                                 : 58 b/s
Count of elements                        : 1409
Stream size                              : 40.7 KiB (0%)
Title                                    : Full
Language                                 : English
Default                                  : No
Forced                                   : No

Text #2
ID                                       : 5
Format                                   : UTF-8
Codec ID                                 : S_TEXT/UTF8
Codec ID/Info                            : UTF-8 Plain Text
Duration                                 : 1 h 39 min
Bit rate                                 : 68 b/s
Count of elements                        : 1534
Stream size                              : 49.7 KiB (0%)
Title                                    : SDH
Language                                 : English
Default                                  : No
Forced                                   : No

Text #3
ID                                       : 6
Format                                   : UTF-8
Codec ID                                 : S_TEXT/UTF8
Codec ID/Info                            : UTF-8 Plain Text
Duration                                 : 1 h 39 min
Bit rate                                 : 68 b/s
Count of elements                        : 1534
Stream size                              : 49.8 KiB (0%)
Title                                    : SDH-Colored
Language                                 : English
Default                                  : No
Forced                                   : No

Menu
00:00:00.000                             : en:Chapter 01
00:07:04.966                             : en:Chapter 02
00:14:23.571                             : en:Chapter 03
00:20:40.113                             : en:Chapter 04
00:26:18.910                             : en:Chapter 05
00:31:26.885                             : en:Chapter 06
00:38:13.666                             : en:Chapter 07
00:45:24.638                             : en:Chapter 08
00:50:49.629                             : en:Chapter 09
00:57:46.588                             : en:Chapter 10
01:07:05.980                             : en:Chapter 11
01:12:30.804                             : en:Chapter 12
01:16:48.437                             : en:Chapter 13
01:23:19.828                             : en:Chapter 14
01:28:59.083                             : en:Chapter 15
01:35:22.967                             : en:End Credits
Світлини




Джерело: &
Особиста оцінка: 0 - не дивився


Золотий реліз (завантажене не впливає на рейтинг)
 Трекер:    Зареєстрований   

Завантажити / скачати фільм українською



відео для новачків



 Зареєстрований:   2020-01-07 02:51
 Розмір:   21.93 GB 
 Оцінка фільму:   8.5/10 (Голосів: 6)
   
wladeeck 
Новенький


З нами з: 26.02.17
Востаннє: 02.04.20
Повідомлень: 11

2020-03-24 16:06  
Станьте на роздачу, будьласка.
Ваш часовий пояс: GMT + 2 Години

Нова тема   Відповісти