Фокстер і Макс / Foxter & Max (2019)

Нові коментарі

Нова тема   Відповісти
Автор Повідомлення
Anonymous 







2020-01-06 22:52  
Фокстер і Макс / Foxter & Max (2019)


Жанр: фентезі, пригодницький, сімейний
Країна: Україна



Кінокомпанія: Pronto Film
Режисер: Анатолій Матешко
Актори: Богдан Козій, Віталія Турчин, Томаш Освецінський, Максим Самчик, Дар’я Полуніна, Анастасія Матешко та інші

Сюжет:
Дванадцятилітній школяр Макс втікає з дому й ховається під мостом. Там він знаходить балончик з нано-фарбами, і малює графіті собаки. Неочікувано намальоване хлопцем графіті оживає та перетворюється в пса-наноробота з суперможливостями. І тепер за ними обома полює небезпечний злочинець, який не зупиниться ні перед чим, аби заволодіти цією могутньою технологією. Хлопець Макс потрапляє у вир пригод, завдяки яким він знаходить справжніх друзів.
Офіційний трейлер
Тривалість: 01:28:31
Якість: [ріп від Hurtom, український відеоряд]

Відео:
кодек:
розмір кадру: 720х320
бітрейт: 1951 кб/с

Аудіо:
мова: українська
озвучення: оригінал
кодек: 5.1
бітрейт: 384 кб/с
примітка: на жаль, звук низької якості (6 кГц), при появі якіснішої доріжки реліз буде оновлено
Info
Код:
General
Complete name               : Foxter and Max (2019) [Ukr] [Hurtom].avi
Format                      : AVI
Format/Info                 : Audio Video Interleave
File size                   : 1.45 GiB
Duration                    : 1 h 28 min
Overall bit rate            : 2 344 kb/s
Movie name                  : Фокстер і Макс / Foxter & Max (2019) [Ukr] [Hurtom]
Writing application         : VirtualDubModUkr 1.5.10.2 (build 2542/release)
Writing library             : VirtualDubMod build 2542/release

Video
ID                          : 0
Format                      : MPEG-4 Visual
Format profile              : Advanced [email protected]
Format settings             : BVOP1
Format settings, BVOP       : 1
Format settings, QPel       : No
Format settings, GMC        : No warppoints
Format settings, Matrix     : Default (MPEG)
Codec ID                    :
Codec ID/Hint               :
Duration                    : 1 h 28 min
Bit rate                    : 1 951 kb/s
Width                       : 720 pixels
Height                      : 320 pixels
Display aspect ratio        : 2.25:1
Frame rate                  : 24.000 FPS
Color space                 : YUV
Chroma subsampling          : 4:2:0
Bit depth                   : 8 bits
Scan type                   : Progressive
Compression mode            : Lossy
Bits/(Pixel*Frame)          : 0.353
Stream size                 : 1.21 GiB (83%)
Writing library             : 67

Audio
ID                          : 1
Format                      : AC-3
Format/Info                 : Audio Coding 3
Commercial name             : Dolby Digital
Codec ID                    : 2000
Duration                    : 1 h 28 min
Bit rate mode               : Constant
Bit rate                    : 384 kb/s
Channel(s)                  : 6 channels
Channel layout              : L R C LFE Ls Rs
Sampling rate               : 44.1 kHz
Frame rate                  : 28.711 FPS (1536 SPF)
Compression mode            : Lossy
Stream size                 : 243 MiB (16%)
Alignment                   : Split across interleaves
Interleave, duration        : 42  ms (1.00 video frame)
Interleave, preload duratio : 500  ms
Service kind                : Complete Main


Джерело:
Подяка п.krigg070 за реліз-першоджерело.


Золотий реліз (завантажене не впливає на рейтинг)
 Трекер:    Зареєстрований   

Завантажити / скачати український фільм



відео для новачків



 Зареєстрований:   2020-01-07 01:15
 Розмір:   1.45 GB 
 Оцінка фільму:   9.6/10 (Голосів: 37)
   
Інші релізи
   Фокстер і Макс / Foxter & Max (2019) surikmas  11 / 0   745 MB   2020-01-09 19:06 
   Фокстер і Макс / Foxter & Max (2019) AVC 11FrYkT  45 / 0   1.45 GB   2020-01-07 17:38 
   Фокстер і Макс / Foxter & Max (2019) 1080p krigg070  34 / 0   2.84 GB   2020-01-06 19:22 
panariga 
Новенький


З нами з: 21.02.15
Востаннє: 25.01.20
Повідомлень: 4

2020-01-07 12:40  
нарешті українське кіно на рівні
графіка не розчаровує, актори не виглядають як приморожені, звук як звук, а не озвучка сурдоперекладу
дивно як я прогавив його в кіно
мабуть такі речі треба викладати з вотермарком картки приватбанку прокатчиків для збору бюджету на наступне кіно

Anonymous 







2020-01-07 12:45  
panariga написано:
треба викладати з вотермарком картки приватбанку прокатчиків для збору бюджету на наступне кіно

фільм доступний для купівлі на мегого та світ тб

jaral 
Забанено
Забанено


З нами з: 18.10.07
Востаннє: 21.01.20
Повідомлень: 986

2020-01-07 13:10  
Anonymous написано:
мегого
Російські ворожі здебільшого з піратським контентом сторінки.
Varlemond 
Свій


З нами з: 03.06.12
Востаннє: 25.01.20
Повідомлень: 60

2020-01-07 20:20  
jaral
А де сторінки, що лояльно налаштовані до українського перекладу/оригіналу, ліцензійні?

piznajko 
Відео Гуртом - субтитрування
Відео Гуртом - субтитрування


З нами з: 24.02.09
Востаннє: 26.01.20
Повідомлень: 2024

2020-01-08 02:54  
Varlemond написано:
А де сторінки, що лояльно налаштовані до українського перекладу/оригіналу, ліцензійні?

iTunes

Electroz 
Відео Гуртом - підтримка та поширення
Відео Гуртом - підтримка та поширення


З нами з: 18.09.14
Востаннє: 26.01.20
Повідомлень: 3746

2020-01-08 03:18  
Anonymous написано:
фільм доступний для купівлі на мегого та світ тб

Також на олл.тв

westigo 
Свій


З нами з: 07.04.19
Востаннє: 19.01.20
Повідомлень: 137

2020-01-09 20:35  
Дуже хороший фільм...
Maters 
Відео Гуртом - підтримка та поширення
Відео Гуртом - підтримка та поширення


З нами з: 27.03.12
Востаннє: 26.01.20
Повідомлень: 2015

2020-01-10 18:29  
Anonymous написано:

Аудіо:
мова: українська
озвучення: оригінал

Неправдоподібно. Оригінал вказуємо тільки тому що фільм український? Частина голосів може й належать тим акторам, але от найбільшого поганця дублювали 100%. Деякі інші герої теж не самі озвучували свої репліки.
Ну, але то таке.

Щодо фільму, то мені він не зайшов. Так, графіка дійсно на хорошому рівні, але актори дуже слабенькі.
Від мене 6,5/10

Sentinel73 
Новенький


З нами з: 25.08.11
Востаннє: 17.01.20
Повідомлень: 6

2020-01-17 20:29  
Гарний фільм!
Ваш часовий пояс: GMT + 2 Години

Нова тема   Відповісти