[ЗБІР КОШТІВ] Совиний Дім (Сезон 1, Серії 1-2 з 10) / The Owl House (Season 1, Episodes 1-2 of 10) (2020) 1080р

Нові коментарі

Нова тема   Відповісти
Автор Повідомлення
AdrianZP 
VIP


З нами з: 28.08.14
Востаннє: 26.01.20
Повідомлень: 306

2020-01-06 18:06  
[ЗБІР КОШТІВ] Совиний Дім (Сезон 1, Серії 1-2 з 10) / The Owl House (Season 1, Episodes 1-2 of 10) (2020) 1080р


На озвучення проходить ЗБІР КОШТІВ


[ЗБІР КОШТІВ] Совиний Дім (Сезон 1, Серії 1-2 з 10) / The Owl House (Season 1, Episodes 1-2 of 10) (2020) 1080р


Жанр: Пригоди, Фентезі
Країна: США



Кінокомпанія: Disney Channel
Режисер: Дана Террас
Актори: Сара-Ніколь Роблес, Венді Мелік, Алекс Гірш

Сюжет:
Серіал розповідає нам історію дівчинки на ім'я Лус Носеда, яка потрапляє до магічно-чарівного світу де не дуже таки раді людям. Через це їй доводиться зберігати у секреті її походження, аби мати змогу навчатися в школі для Відьом.


Тривалість: 1 серія: 23:00 (цілком серій: 1-2 з 10)
Перелік серій
1. Брехлива Відьма й Наглядач
2. Відьми кращі за чарівників
???
Якість:
Відео:
кодек:
розмір кадру: 1920 х 1080
бітрейт: ~4 000 кб/с

Аудіо # 1:
мова: українська
переклад: багатоголосий закадровий | Озвучка AdrianZP
кодек: 2.0
бітрейт: 256 кб/с

Аудіо # 2:
мова: англійська
переклад: оригінал
кодек: HE- 2.0
бітрейт: 64 кб/с

Субтитри:
мова: українська | Повітряний Змій
тип: програмні (м'які)
формат: *.srt

Субтитри:
мова: англійська
тип: програмні (м'які)
формат: *.srt
Info
Format :
Format version : Version 4 / Version 2
File size : 685 MiB
Duration : 22 min 3 s
Overall bit rate : 4 343 kb/s
Movie name : 1. Брехлива Відьма й Наглядач
Encoded date : UTC 2020-01-14 13:42:54
Writing application : v9.4.0 ('Knurl') 64bit
Writing library : libebml v1.3.4 + v1.4.5
Cover : Yes
Attachments : Cover Ukr-min.jpg

Video
ID : 1
Format : AVC
Format/Info : Advanced Video Codec
Format profile : [email protected]
Format settings, CABAC : Yes
Format settings, ReFrames : 4 frames
Codec ID : V_MPEG4/ISO/AVC
Duration : 22 min 3 s
Bit rate : 4 019 kb/s
Width : 1 920 pixels
Height : 1 080 pixels
Display aspect ratio : 16:9
Frame rate mode : Constant
Frame rate : 23.976 (24000/1001) FPS
Color space : YUV
Chroma subsampling : 4:2:0
Bit depth : 8 bits
Scan type : Progressive
Bits/(Pixel*Frame) : 0.081
Stream size : 634 MiB (93%)
Language : English
Default : Yes
Forced : No

Audio #1
ID : 2
Format :
Format/Info : Advanced Audio Codec
Format profile : LC
Codec ID : A_AAC
Duration : 22 min 3 s
Bit rate : 256 kb/s
Channel(s) : 2 channels
Channel positions : Front: L R
Sampling rate : 48.0 kHz
Frame rate : 46.875 FPS (1024 spf)
Compression mode : Lossy
Stream size : 40.4 MiB (6%)
Title : Озвучка AdrianZP
Language : Ukrainian
Default : Yes
Forced : No

Audio #2
ID : 3
Format :
Format/Info : Advanced Audio Codec
Format profile : HE- / LC
Codec ID : A_AAC
Duration : 22 min 3 s
Bit rate : 64.0 kb/s
Channel(s) : 2 channels
Channel positions : Front: L R
Sampling rate : 48.0 kHz / 24.0 kHz
Frame rate : 23.438 FPS (1024 spf)
Compression mode : Lossy
Stream size : 10.1 MiB (1%)
Language : English
Default : No
Forced : No

Text #1
ID : 4
Format : UTF-8
Codec ID : S_TEXT/UTF8
Codec ID/Info : UTF-8 Plain Text
Duration : 21 min 34 s
Bit rate : 108 b/s
Count of elements : 349
Stream size : 17.2 KiB (0%)
Title : «Повітряний Змій» для «Озвучка AdrianZP»
Language : Ukrainian
Default : No
Forced : No

Text #2
ID : 5
Format : UTF-8
Codec ID : S_TEXT/UTF8
Codec ID/Info : UTF-8 Plain Text
Duration : 21 min 5 s
Bit rate : 84 b/s
Count of elements : 432
Stream size : 13.0 KiB (0%)
Language : English
Default : No
Forced : No
Скріншоти
???
Озвучення виконано:
Переклад: Повітряний Змій
Ролі озвучили: MariAm, AdrianZP, Dakshina_Kali та Snovyda
Робота зі звуком: AdrianZP

ТРЕЙЛЕР



ПІДТРИМАЙТЕ ОЗВУЧЕННЯ ТА СУБТИТРУВАННЯ!
Станом на 25.01.2020 усього зібрано 2 450 з 8 800 грн.
На 3 серію зібрано 690 з 880 грн



Джерело:
Особиста оцінка: 10 - Якщо вам сподобалася Гільда чи Стар, то й це неодмінно!


Авторський реліз (завантажувати можна без реєстрації)
 Трекер:    Зареєстрований   

Завантажити / скачати мультфільм українською



відео для новачків



 Зареєстрований:   2020-01-20 12:53
 Розмір:   1.47 GB 
 Оцінка мультсеріалу:   10/10 (Голосів: 8)
   
bot 
робот


З нами з: 30.09.07
Востаннє: 26.05.05
Повідомлень: 23064

2020-01-06 18:06  
Тему перенесено з Мультсеріали в HD до форуму Анонси релізів


AdrianZP

AdrianZP 
VIP


З нами з: 28.08.14
Востаннє: 26.01.20
Повідомлень: 306

2020-01-06 18:06  
ПРЕМ'ЄРА 1 СЕРІЇ 10 СІЧНЯ!
БЛИЖЧЕ ДО ЦІЄЇ ДАТИ БУДЕ ГОТОВИЙ УКРАЇНСЬКИЙ ТРЕЙЛЕР.


Наше озвучення ви могли чути, наприклад у мультсеріалах:
Гільда: https://toloka.to/t95641
Стар проти сил зла: https://toloka.to/t101713

AdrianZP 
VIP


З нами з: 28.08.14
Востаннє: 26.01.20
Повідомлень: 306

2020-01-09 18:42  
ТРЕЙЛЕР УКРАЇНСЬКОЮ


bot 
робот


З нами з: 30.09.07
Востаннє: 26.05.05
Повідомлень: 23064

2020-01-14 15:53  
Тему перенесено з Анонси релізів до форуму Мультсеріали в HD


AdrianZP

AdrianZP 
VIP


З нами з: 28.08.14
Востаннє: 26.01.20
Повідомлень: 306

2020-01-14 15:59  
ДОДАНО 1 СЕРІЮ!
Серіал показують на американському ТБ раз на тиждень.
Показ 2 серії має бути 17 січня.


14.01.2020 на 2 серію зібрано 170 з 880 грн


(erhiy 
Новенький


З нами з: 01.09.12
Востаннє: 21.01.20
Повідомлень: 13

2020-01-14 18:38  
Крутезний мультик, на рівні з Гравіті Фолз та Гільдою Happy
AdrianZP 
VIP


З нами з: 28.08.14
Востаннє: 26.01.20
Повідомлень: 306

2020-01-20 12:53  
ДОДАНО 2 СЕРІЮ!
Серіал транслюють кожної п'ятниці, орієнтовано в Сб з'являються матеріали для перекладу та озвучення.


20.01.2020 на 3 серію зібрано 240 з 880 грн


Ваш часовий пояс: GMT + 2 Години

Нова тема   Відповісти