Надивившись детективів / Watching the Detectives (2007) 720p Ukr/Eng | Sub Eng

Нові коментарі

Нова тема   Відповісти
Автор Повідомлення
Anonymous 







2020-01-06 13:09  
Надивившись детективів / Watching the Detectives (2007) 720p Ukr/Eng | Sub Eng

Надивившись детективів / Watching the Detectives (2007) 720p Ukr/Eng | Sub Eng


Жанр: комедія, романтичний
Країна: США



Кінокомпанія: Plum Pictures, Peace Arch Entertainment Group, Hart-Lunsford Pictures
Режисер: Пол Сотер
Актори: Кілліан Мерфі, Люсі Лью, Меттью Бекер, Джек Бетке, Хезер Бернс, Алікс Ілайас, Коннор Фукс, Джош Гад, Джоель Гарленд, Денніс Габбінса

Сюжет:
Нейл - власник скромного відеопрокату «Крутий поліцейський» і вважає себе знавцем кіно. Він переглядає фільм за фільмом. Одного разу Нейл зустрічає фатальну красуню на ім'я Вайолет, яка перевернула його сірий світ з ніг на голову. Напевно Нейла так затягне вир пригод, що незабаром він і сам перестане відрізняти кіносвіт від реальності. Але чи готовий Нейл почати нове життя, повне адреналіну, чи все ж повернеться у своє улюблене крісло перед телевізором?


Тривалість: 01:34:13
Якість: 720p
Відео:
кодек:
розмір кадру: 1280х696
бітрейт: 4586 кб/с

Аудіо # 1:
мова: українська
переклад: двоголосий закадровий
кодек: 2.0
бітрейт: 192 кб/с

Аудіо # 2:
мова: англійська
переклад: оригінал
кодек: 5.1
бітрейт: 448 кб/с

Субтитри:
мова: англійська
тип: програмні (м'які)
формат: *.srt
Info
General
Unique ID : 238073915698735679897634247290442008328 (0xB31B5E4A5CA20D269BB4972A6D50C708)
Complete name : H:\Toloka\2020\Watching the Detectives (2007) 720p.
Format :
Format version : Version 4
File size : 3.44 GiB
Duration : 1 h 34 min
Overall bit rate : 5 228 kb/s
Movie name : Watching the Detectives (2007)
Encoded date : UTC 2020-01-06 10:04:33
Writing application : v6.1.0 ('Old Devil') built on Mar 4 2013 09:10:42
Writing library : libebml v1.3.0 + v1.4.0

Video
ID : 1
Format : AVC
Format/Info : Advanced Video Codec
Format profile : [email protected]
Format settings : CABAC / 9 Ref Frames
Format settings, CABAC : Yes
Format settings, RefFrames : 9 frames
Codec ID : V_MPEG4/ISO/AVC
Duration : 1 h 34 min
Bit rate : 4 586 kb/s
Width : 1 280 pixels
Height : 696 pixels
Display aspect ratio : 1.85:1
Frame rate mode : Constant
Frame rate : 23.976 (24000/1001) FPS
Color space : YUV
Chroma subsampling : 4:2:0
Bit depth : 8 bits
Scan type : Progressive
Bits/(Pixel*Frame) : 0.215
Stream size : 2.95 GiB (86%)
Title : Watching the Detectives (2007)
Writing library : core 148 r2744 b97ae06
Encoding settings : cabac=1 / ref=9 / deblock=1:-3:-3 / analyse=0x3:0x133 / me=umh / subme=11 / psy=1 / psy_rd=1.00:0.00 / mixed_ref=1 / me_range=32 / chroma_me=1 / trellis=2 / 8x8dct=1 / cqm=0 / deadzone=21,11 / fast_pskip=1 / chroma_qp_offset=-2 / threads=6 / lookahead_threads=1 / sliced_threads=0 / nr=0 / decimate=1 / interlaced=0 / bluray_compat=0 / constrained_intra=0 / bframes=16 / b_pyramid=2 / b_adapt=2 / b_bias=0 / direct=3 / weightb=1 / open_gop=0 / weightp=2 / keyint=240 / keyint_min=23 / scenecut=40 / intra_refresh=0 / rc_lookahead=60 / rc=2pass / mbtree=1 / bitrate=4586 / ratetol=1.0 / qcomp=0.60 / qpmin=0 / qpmax=69 / qpstep=4 / cplxblur=20.0 / qblur=0.5 / vbv_maxrate=50000 / vbv_bufsize=62500 / nal_hrd=none / filler=0 / ip_ratio=1.40 / aq=1:1.00
Language : English
Default : Yes
Forced : No

Audio #1
ID : 2
Format : AC-3
Format/Info : Audio Coding 3
Commercial name : Dolby Digital
Codec ID : A_AC3
Duration : 1 h 34 min
Bit rate mode : Constant
Bit rate : 192 kb/s
Channel(s) : 2 channels
Channel layout : L R
Sampling rate : 48.0 kHz
Frame rate : 31.250 FPS (1536 SPF)
Bit depth : 16 bits
Compression mode : Lossy
Stream size : 129 MiB (4%)
Title : UKR (Максі-ТБ)
Language : Ukrainian
Service kind : Complete Main
Default : Yes
Forced : Yes

Audio #2
ID : 3
Format : AC-3
Format/Info : Audio Coding 3
Commercial name : Dolby Digital
Codec ID : A_AC3
Duration : 1 h 34 min
Bit rate mode : Constant
Bit rate : 448 kb/s
Channel(s) : 6 channels
Channel layout : L R C LFE Ls Rs
Sampling rate : 48.0 kHz
Frame rate : 31.250 FPS (1536 SPF)
Bit depth : 16 bits
Compression mode : Lossy
Stream size : 302 MiB (9%)
Title : ENG
Language : English
Service kind : Complete Main
Default : No
Forced : No

Text
ID : 4
Format : UTF-8
Codec ID : S_TEXT/UTF8
Codec ID/Info : UTF-8 Plain Text
Language : English
Default : No
Forced : No

Menu
00:00:00.000 : en:1
00:04:22.293 : en:2
00:10:24.048 : en:3
00:20:07.993 : en:4
00:30:18.798 : en:5
00:56:54.647 : en:6
01:15:32.503 : en:7
01:33:32.459 : en:8
Скріншоти







За українську доріжку подяка п.: РОМЕО, AngryBirdsUA
Особиста подяка пану denixx за надану матеріальну допомогу на підтримку цього і майбутніх релізів.
Джерело:


 Трекер:    Зареєстрований   

Завантажити / скачати фільм українською



відео для новачків



 Зареєстрований:   2020-01-06 13:09
 Розмір:   3.44 GB 
 Оцінка фільму:   9.8/10 (Голосів: 5)
   
Інші релізи
Ваш часовий пояс: GMT + 2 Години

Нова тема   Відповісти