Велика рогата змова / Cowspiracy: The Sustainability Secret (2014) 720p

Нові коментарі

Нова тема   Відповісти
Автор Повідомлення
[email protected] 
Новенький


З нами з: 26.01.16
Востаннє: 19.04.21
Повідомлень: 2

2020-01-06 03:29  
Велика рогата змова / Cowspiracy: The Sustainability Secret (2014) 720p

Велика рогата змова / Cowspiracy: The Sustainability Secret (2014) 720p


Жанр: документальний
Країна: США



Телеканал / кіностудія: A.U.M. Films & Media
Режисер: Кіп Андерсен (Kip Andersen)
Актори: Кіп Андерсен (Kip Andersen), Говард Лайман (Howard Lyman), Річард Оппенландер (Richard Oppenlander), Майкл Поллан (Michael Pollan), Майкл Клейпер (Michael Klaper), Вілл Таттл (Will Tuttle), Вілл Поттер (Will Potter)

Сюжет:
Фільм досліджує спустошливі наслідки для довколишнього середовища, що їх спричиняє тваринництво, зокрема використання великої рогатої худоби у промислових масштабах. Аналізуючи факти, дані і свідчення, автори стрічки намагаються зрозуміти, чому проблема ігнорується як державними структурами, так і природоохоронними організаціями, та знайти шляхи вирішення цієї кризи.


Тривалість: 01:30:44
Якість:

Відео:
кодек:
розмір кадру: 1280х720
бітрейт: 8945 кб/с

Аудіо:
мова: українська
переклад: багатоголосий закадровий
аудіо кодек: 2.0
бітрейт аудіо: 317 кб/с
Джерело озвучення: Авторський переклад Веганз_юа, озвучка Volna Film.
Info

General
Complete name : D:\GDrive Private\Vegan Life\Cowspiracy\Велика рогата змова.mp4
Format : MPEG-4
Format profile : Base Media / Version 2
Codec ID : mp42 (mp42/mp41)
File size : 5.87 GiB
Duration : 1 h 30 min
Overall bit rate mode : Variable
Overall bit rate : 9 266 kb/s
Encoded date : UTC 2020-01-01 23:59:46
Tagged date : UTC 2020-01-02 00:01:07
TIM : 00:00:00:00
TSC : 24000
TSZ : 1001

Video
ID : 1
Format : AVC
Format/Info : Advanced Video Codec
Format profile : [email protected]
Format settings : CABAC / 2 Ref Frames
Format settings, CABAC : Yes
Format settings, Reference frames : 2 frames
Format settings, GOP : M=3, N=23
Codec ID : avc1
Codec ID/Info : Advanced Video Coding
Duration : 1 h 30 min
Source duration : 1 h 30 min
Bit rate mode : Variable
Bit rate : 8 945 kb/s
Maximum bit rate : 12.0 Mb/s
Width : 1 280 pixels
Height : 720 pixels
Display aspect ratio : 16:9
Frame rate mode : Constant
Frame rate : 23.976 (24000/1001) FPS
Color space : YUV
Chroma subsampling : 4:2:0
Bit depth : 8 bits
Scan type : Progressive
Bits/(Pixel*Frame) : 0.405
Stream size : 5.67 GiB (97%)
Source stream size : 5.67 GiB (97%)
Language : English
Encoded date : UTC 2020-01-01 23:59:46
Tagged date : UTC 2020-01-01 23:59:46
Codec configuration box : avcC

Audio
ID : 2
Format : LC
Format/Info : Advanced Audio Codec Low Complexity
Codec ID : mp4a-40-2
Duration : 1 h 30 min
Source duration : 1 h 30 min
Bit rate mode : Variable
Bit rate : 317 kb/s
Maximum bit rate : 372 kb/s
Channel(s) : 2 channels
Channel layout : L R
Sampling rate : 48.0 kHz
Frame rate : 46.875 FPS (1024 SPF)
Compression mode : Lossy
Stream size : 206 MiB (3%)
Source stream size : 206 MiB (3%)
Language : English
Encoded date : UTC 2020-01-01 23:59:46
Tagged date : UTC 2020-01-01 23:59:46
Скріншоти



Особиста оцінка: 10 - без зайвих вагань рекомендую всім!


Авторський реліз (завантажувати можна без реєстрації)
 Трекер:    Зареєстрований   

Завантажити / скачати торрент



відео для новачків



 Зареєстрований:   2020-01-06 03:40
 Розмір:   5.87 GB 
 Оцінка:   7.4/10 (Голосів: 7)
   
zvb 
Новенький


З нами з: 31.05.09
Востаннє: 19.04.21
Повідомлень: 22

2020-01-06 09:58  
Проблема не нова! Проте фільм сильно застарів - йому до 20-ти років. Дуже дивно, що ніхто не зробив нового
st_78 
VIP


З нами з: 18.11.16
Востаннє: 19.04.21
Повідомлень: 1239

2020-01-06 11:28  
igor911 
Модератор відео


З нами з: 18.01.08
Востаннє: 20.04.21
Повідомлень: 15886

2020-01-06 11:50  
Оформіть реліз згідно правил https://toloka.to/t201, заповнивши всі необхідні поля в майстрі створення релізу https://toloka.to/release.php та додавши звіт Info.
bot 
робот


З нами з: 30.09.07
Востаннє: 26.05.05
Повідомлень: 27938

2020-01-06 20:04  
[email protected] 
Новенький


З нами з: 26.01.16
Востаннє: 19.04.21
Повідомлень: 2

2020-01-07 14:12  
Цитата:
zvb: Проблема не нова! Проте фільм сильно застарів - йому до 20-ти років. Дуже дивно, що ніхто не зробив нового


Фільм 2014 року, тобто йому п'ять років. Відтоді вийшло доволі багато інших фільмів про те, як тваринництво шкодить довкіллю, але факт змови тваринників тут все ж розкритий найкраще. Тому й така назва.

Ваш часовий пояс: GMT + 2 Години

Нова тема   Відповісти