Перспектива / Prospect (2018) 1080p Ukr/Eng | Sub Eng

Нові коментарі

Нова тема   Відповісти
Автор Повідомлення
Anonymous 







2020-01-05 17:16  
Перспектива / Prospect (2018) 1080p Ukr/Eng | Sub Eng

Перспектива / Prospect (2018) 1080p Ukr/Eng | Sub Eng


Жанр: драма, фантастика, трилер
Країна: Канада, США
Кінокомпанія: Depth of Field, Ground Control, BRON Studios
Режисер: Крістофер Колдвелл / Christopher Caldwell, Зік Ерл / Zeek Earl
Актори: Софі Тачер / Sophie Thatcher, Джей Дуплас / Jay Duplass, Педро Паскаль / Pedro Pascal, Люк Піцрік / Luke Pitzrick, Артур Деранлуа / Arthur Deranleau, Андре Ройо / Andre Royo, Алекс МакКалі / Alex McCauley, Даґ Доусон / Doug Dawson, Кріста Джонсон / Krista Johnson, Браян Ґантер / Brian Gunter та інші.

Сюжет:
Дівчинка-підліток разом з батьком-наркоманом прилітають на одну з планет, щоб взяти участь в пошуку рідкісних і дуже дорогих мінералів, які допоможуть їм вирішити фінансові проблеми родини. Дівчинка хоче отримати пристойну освіту, а таткові треба розрахуватися з боргами. У батька є карта, яка повинна допомогти у виконанні задуманого, але існують і перешкоди. Повітря планети наповнене отруйним пилом, який змушує носити апарати для дихання, а навколо ходять конкуруючі групи таких же стражденних до багатств дослідників. Одна така зустріч призводить до смерті батька і старателя-конкурента. Молода дівчина змушена об’єднати сили з конкурентом, аби вижити у ворожому середовищі…

Тривалість: 01:39:51
Якість:

Відео:
кодек:
розмір кадру: 1920 x 1014
бітрейт: 16855 кб/с

Аудіо # 1:
мова: українська
переклад: багатоголосий закадровий | DniproFilm
кодек: AC-3 5.1
бітрейт: 384 кб/с

Аудіо # 2:
мова: англійська
переклад: оригінал
кодек: AC-3 5.1
бітрейт: 640 кб/с

Субтитри # 1-2: (Full, SDH)
мова: англійська
тип: програмні (м'які)
формат: *.srt


Info
Код:
General
Unique ID                                : 64108897072807286452185671937049946827 (0x303AECA93DBFBBEADA623C20E6EEEACB)
Complete name                            : Prospect (2018) 1080p [UKR_ENG] [Hurtom].
Format                                   :
Format version                           : Version 4
File size                                : 12.5 GiB
Duration                                 : 1 h 39 min
Overall bit rate                         : 17.9 Mb/s
Movie name                               : Перспектива / Prospect (2018)
Encoded date                             : UTC 2020-01-05 13:39:05
Writing application                      : v20.0.0 ('I Am The Sun') 64-bit
Writing library                          : libebml v1.3.5 + v1.4.8
Cover                                    : Yes
Attachments                              : Cover.jpg

Video
ID                                       : 1
Format                                   : AVC
Format/Info                              : Advanced Video Codec
Format profile                           : [email protected]
Format settings                          : CABAC / 4 Ref Frames
Format settings, CABAC                   : Yes
Format settings, Reference frames        : 4 frames
Codec ID                                 : V_MPEG4/ISO/AVC
Duration                                 : 1 h 39 min
Bit rate                                 : 16.9 Mb/s
Width                                    : 1 920 pixels
Height                                   : 1 014 pixels
Display aspect ratio                     : 1.893
Frame rate mode                          : Constant
Frame rate                               : 23.976 (24000/1001) FPS
Color space                              : YUV
Chroma subsampling                       : 4:2:0
Bit depth                                : 8 bits
Scan type                                : Progressive
Bits/(Pixel*Frame)                       : 0.361
Stream size                              : 11.8 GiB (94%)
Title                                    : Перспектива / Prospect (2018)
Writing library                          : core 157 r2867+103 0d6443f t_mod_Custom_2 [[email protected] X86_64]
Encoding settings                        : cabac=1 / ref=4 / deblock=1:-3:-3 / analyse=0x3:0x133 / me=umh / subme=10 / psy=1 / fade_compensate=0.00 / psy_rd=1.00:0.00 / mixed_ref=1 / me_range=32 / chroma_me=1 / trellis=2 / 8x8dct=1 / cqm=0 / deadzone=21,11 / fast_pskip=0 / chroma_qp_offset=-2 / threads=24 / lookahead_threads=4 / sliced_threads=0 / nr=0 / decimate=0 / interlaced=0 / bluray_compat=0 / constrained_intra=0 / fgo=0 / bframes=8 / b_pyramid=2 / b_adapt=2 / b_bias=0 / direct=3 / weightb=1 / open_gop=0 / weightp=2 / keyint=250 / keyint_min=23 / scenecut=40 / intra_refresh=0 / rc_lookahead=60 / rc=crf / mbtree=0 / crf=16.2000 / qcomp=0.65 / qpmin=0:0:0 / qpmax=69:69:69 / qpstep=4 / vbv_maxrate=62500 / vbv_bufsize=78125 / crf_max=0.0 / nal_hrd=none / filler=0 / ip_ratio=1.40 / pb_ratio=1.30 / aq=3:0.80 / aq-sensitivity=10.00 / aq-factor=1.00:1.00:1.00 / aq2=0 / aq3=0 / zones=249,901,crf=14.5/29198,29920,crf=14.2/53809,54043,crf=14.2/56823,57076,crf=14/57074,58203,crf=14.2/67794,68242,crf=14/68423,69189,crf=13.5/89218,89368,crf=13.5/90124,90815,crf=14/99855,103631,crf=14/104399,121149,b=0.9/121234,128989,b=0.9/129772,130399,b=0.9/134315,135074,crf=14/135075,143649,b=0.6
Language                                 : English
Default                                  : Yes
Forced                                   : No

Audio #1
ID                                       : 2
Format                                   : AC-3
Format/Info                              : Audio Coding 3
Commercial name                          : Dolby Digital
Codec ID                                 : A_AC3
Duration                                 : 1 h 39 min
Bit rate mode                            : Constant
Bit rate                                 : 384 kb/s
Channel(s)                               : 6 channels
Channel layout                           : L R C LFE Ls Rs
Sampling rate                            : 48.0 kHz
Frame rate                               : 31.250 FPS (1536 SPF)
Bit depth                                : 16 bits
Compression mode                         : Lossy
Stream size                              : 274 MiB (2%)
Title                                    : / 5.1 Ch / 384 kbps / БЗ / DniproFilm
Language                                 : Ukrainian
Service kind                             : Complete Main
Default                                  : Yes
Forced                                   : Yes

Audio #2
ID                                       : 3
Format                                   : AC-3
Format/Info                              : Audio Coding 3
Commercial name                          : Dolby Digital
Codec ID                                 : A_AC3
Duration                                 : 1 h 39 min
Bit rate mode                            : Constant
Bit rate                                 : 640 kb/s
Channel(s)                               : 6 channels
Channel layout                           : L R C LFE Ls Rs
Sampling rate                            : 48.0 kHz
Frame rate                               : 31.250 FPS (1536 SPF)
Bit depth                                : 16 bits
Compression mode                         : Lossy
Stream size                              : 457 MiB (4%)
Title                                    : / 5.1 Ch / 640 kbps / Original
Language                                 : English
Service kind                             : Complete Main
Default                                  : No
Forced                                   : No

Text #1
ID                                       : 4
Format                                   : UTF-8
Codec ID                                 : S_TEXT/UTF8
Codec ID/Info                            : UTF-8 Plain Text
Duration                                 : 1 h 38 min
Bit rate                                 : 32 b/s
Count of elements                        : 968
Stream size                              : 23.6 KiB (0%)
Title                                    : Full
Language                                 : English
Default                                  : No
Forced                                   : No

Text #2
ID                                       : 5
Format                                   : UTF-8
Codec ID                                 : S_TEXT/UTF8
Codec ID/Info                            : UTF-8 Plain Text
Duration                                 : 1 h 38 min
Bit rate                                 : 44 b/s
Count of elements                        : 1417
Stream size                              : 31.9 KiB (0%)
Title                                    : SDH
Language                                 : English
Default                                  : No
Forced                                   : No

Menu
00:00:00.000                             : en:00:00:00.000
00:07:43.922                             : en:00:07:43.922
00:13:02.532                             : en:00:13:02.532
00:20:54.795                             : en:00:20:54.795
00:27:59.845                             : en:00:27:59.845
00:35:11.568                             : en:00:35:11.568
00:46:54.061                             : en:00:46:54.061
00:54:41.737                             : en:00:54:41.737
01:02:19.569                             : en:01:02:19.569
01:12:29.053                             : en:01:12:29.053
01:20:09.304                             : en:01:20:09.304
01:28:26.968                             : en:01:28:26.968
Світлини




Джерело: &
Особиста оцінка: 0 - не дивився


Авторський реліз (завантажувати можна без реєстрації)
 Трекер:    Зареєстрований   

Завантажити / скачати фільм українською



відео для новачків



 Зареєстрований:   2020-01-05 17:16
 Розмір:   12.47 GB 
 Оцінка фільму:   7.3/10 (Голосів: 15)
   
Інші релізи
   Перспектива / Prospect (2018) AVC Ukr/Eng | Sub Eng Sando7  17 / 0   1.98 GB   2021-01-14 18:54 
   Перспектива / Prospect (2018) 720p Ukr/Eng | Sub Eng staf777  3 / 0   5.1 GB   2020-01-07 20:28 
І-р 
Свій


З нами з: 21.07.16
Востаннє: 22.01.21
Повідомлень: 142

2020-01-12 23:09  
Фільм - маячня. Виключив після того, як дівчисько зробило ампутацію руки дорослого дядька.
RemH7 
Частий відвідувач


З нами з: 15.08.11
Востаннє: 09.01.21
Повідомлень: 37

2021-01-02 11:59  
Фільм бомбезний.
Багато напружених сцен. Хороша акторська гра та цікавий сюжет. Може не так багато графіки, як на фантастику але головне, ще є зрозуміла ідея фільму і її втілення. 9 з 10

І-р
Цитата:
Фільм - маячня. Виключив після того, як дівчисько зробило ампутацію руки дорослого дядька.


Критика, бляха, "80 - го рівня"...
Там в описі фільму, прямим текстом написано, жанр - фантастика. Ви це бачили?

Ваш часовий пояс: GMT + 2 Години

Нова тема   Відповісти