3000 миль до Ґрейсленда / 3000 Miles to Graceland (2001) 720p 3xUkr/Eng | Sub Eng

Нові коментарі

Нова тема   Відповісти
Останній раз роздавалося cuntiniousdeath (2020-05-13)
Автор Повідомлення
Anonymous 







2020-01-05 18:05  
3000 миль до Ґрейсленда / 3000 Miles to Graceland (2001) 720p 3xUkr/Eng | Sub Eng

3000 миль до Ґрейсленда / 3000 Miles to Graceland (2001) 720p 3xUkr/Eng | Sub Eng


Жанр: бойовик, кримінальний, комедія, трилер
Країна: США
Кінокомпанія: Franchise Pictures, Epsilon Motion Pictures
Режисер: Деміам Ліхтенштейн
Актори: Курт Расселл, Кевін Костнер, Кортні Кокс, Крістіан Слейтер, Девід Аркетт, Кевін Полак, Джон Ловіц

Сюжет:
Банда карних злочинців здійснює зухвалий напад на казино в Лас-Веґасі в дні проведення традиційного конкурсу двійників Елвіса. Після того, як переодягнутим в костюми короля гангстерам вдалося втекти від гонитви, на бандитському порядку денному стало головне питання: прийшла пора ділити гроші, гроші неабиякі. Не дивлячись на те, що в процесі пограбування кількість претендентів на великий куш зменшилася, вкрадені мільйони привертали дуже багатьх охочих. І тоді один з членів банди, як і покладено в справжніх вестернах, вирішив не ділитися ні з ким і забрати гроші собі. Тепер залишилося тільки розібратися з іншими...

Тривалість: 02:04:41
Якість:

Відео:
кодек:
розмір кадру: 1280 x 542
бітрейт: 6 607 кб/с

Аудіо # 1:
мова: українська
переклад: багатоголосий закадровий ,
кодек: AC-3 2.0
бітрейт: 192 кб/с
примітка: новий, більш якісний запис від пана xslim, за що йому дяка. Також подяка пану taraskill1 за синхронізацію.

Аудіо # 2:
мова: українська
переклад: багатоголосий закадровий
кодек: AC-3 2.0
бітрейт: 192 кб/с

Аудіо # 3:
мова: українська
переклад: багатоголосий закадровий
кодек: AC-3 2.0
бітрейт: 192 кб/с

Аудіо # 4:
мова: англійська
переклад: оригінал
кодек: AC-3 5.1
бітрейт: 448 кб/с

Субтитри # 1-2: (Full, SDH)
мова: англійська
тип: програмні (м'які)
формат: *.srt


Увага!!!
канали 2+2 та НТН показували урізану версію, тому у місця де не було озвучення вставлено звук каналу ICTV
а саме в ці місця
00:50:13 вирізано 21 секунду - Курт Рассел сідає з жінкою і дитиною в машину, і під поглядами копів їде на автівці, нервує, плутає передачі, нарешті від'їжджає.

00:57:19 вирізано 2 хвилини 34 секунди - Курт Рассел дивиться з вікна на машину і хлопчика, по телевізору показують Елвіса, потім Рассел лежачи одягнений на ліжку - сперечається з жінкою, потім та до нього починає приставати, зміна кадру: Костнер в машині , його обганяє зграйка байкерів, Костнер розмовляє з одним з них, дівиця з заправки при цьому "тренує по дорослому гланди" на причандаллях Костнера, далі дівиця пересідає до байкера і їде з ним.

1:05:24 вирізано 1 хвилина 19 секунд - Костнер на машині, його зупиняє коп, обігрується класична дуель з вестерна.

1:33:11 вирізано 59 секунд - Курт Рассел з жінкою і дитиною в готелі - перебирають гроші з сумки, зміна кадру: федерали в дільниці - розмовляють з товстим копом за столом.
Info
Код:
General
Unique ID                                : 321762506031080438743284830441899146631 (0xF211345C61BA6100618EC135BF99BD87)
Complete name                            : 3000 Miles to Graceland (2001) 720p [3xUKR_ENG] [Hurtom].
Format                                   :
Format version                           : Version 4
File size                                : 6.65 GiB
Duration                                 : 2 h 4 min
Overall bit rate                         : 7 630 kb/s
Movie name                               : 3000 миль до Ґрейсленда / 3000 Miles to Graceland (2001)
Encoded date                             : UTC 2020-02-23 12:56:34
Writing application                      : v20.0.0 ('I Am The Sun') 64-bit
Writing library                          : libebml v1.3.5 + v1.4.8
Cover                                    : Yes
Attachments                              : cover.jpg

Video
ID                                       : 1
Format                                   : AVC
Format/Info                              : Advanced Video Codec
Format profile                           : [email protected]
Format settings                          : CABAC / 12 Ref Frames
Format settings, CABAC                   : Yes
Format settings, Reference frames        : 12 frames
Codec ID                                 : V_MPEG4/ISO/AVC
Duration                                 : 2 h 4 min
Bit rate                                 : 6 607 kb/s
Width                                    : 1 280 pixels
Height                                   : 542 pixels
Display aspect ratio                     : 2.35:1
Frame rate mode                          : Constant
Frame rate                               : 23.976 (24000/1001) FPS
Color space                              : YUV
Chroma subsampling                       : 4:2:0
Bit depth                                : 8 bits
Scan type                                : Progressive
Bits/(Pixel*Frame)                       : 0.397
Stream size                              : 5.75 GiB (87%)
Title                                    : 3000 миль до Ґрейсленда / 3000 Miles to Graceland (2001)
Writing library                          : core 152 r2851kMod ba24899
Encoding settings                        : cabac=1 / ref=12 / deblock=1:-3:-2 / analyse=0x3:0x113 / me=umh / subme=10 / psy=1 / fade_compensate=0.00 / psy_rd=1.05:0.10 / mixed_ref=1 / me_range=48 / chroma_me=1 / trellis=2 / 8x8dct=1 / cqm=0 / deadzone=21,11 / fast_pskip=1 / chroma_qp_offset=-3 / threads=12 / lookahead_threads=3 / sliced_threads=0 / nr=0 / decimate=1 / interlaced=0 / bluray_compat=0 / constrained_intra=0 / bframes=16 / b_pyramid=2 / b_adapt=2 / b_bias=0 / direct=1 / weightb=1 / open_gop=0 / weightp=2 / keyint=240 / keyint_min=23 / scenecut=40 / intra_refresh=0 / rc=crf / mbtree=0 / crf=17.0000 / qcomp=0.63 / qpmin=0 / qpmax=33 / qpstep=4 / ip_ratio=1.40 / pb_ratio=1.30 / aq=2:0.80
Language                                 : English
Default                                  : Yes
Forced                                   : No
Color range                              : Limited
Color primaries                          : BT.709
Transfer characteristics                 : BT.709
Matrix coefficients                      : BT.709

Audio #1
ID                                       : 2
Format                                   : AC-3
Format/Info                              : Audio Coding 3
Commercial name                          : Dolby Digital
Codec ID                                 : A_AC3
Duration                                 : 2 h 4 min
Bit rate mode                            : Constant
Bit rate                                 : 192 kb/s
Channel(s)                               : 2 channels
Channel layout                           : L R
Sampling rate                            : 48.0 kHz
Frame rate                               : 31.250 FPS (1536 SPF)
Compression mode                         : Lossy
Stream size                              : 171 MiB (3%)
Title                                    : / 2.0 Ch / 192 kbps / БЗ / ICTV, AMC
Language                                 : Ukrainian
Service kind                             : Complete Main
Default                                  : Yes
Forced                                   : Yes

Audio #2
ID                                       : 3
Format                                   : AC-3
Format/Info                              : Audio Coding 3
Commercial name                          : Dolby Digital
Codec ID                                 : A_AC3
Duration                                 : 2 h 4 min
Bit rate mode                            : Constant
Bit rate                                 : 192 kb/s
Channel(s)                               : 2 channels
Channel layout                           : L R
Sampling rate                            : 48.0 kHz
Frame rate                               : 31.250 FPS (1536 SPF)
Compression mode                         : Lossy
Delay relative to video                  : 24 ms
Stream size                              : 171 MiB (3%)
Title                                    : / 2.0 Ch / 192 kbps / БЗ / 2+2
Language                                 : Ukrainian
Service kind                             : Complete Main
Default                                  : No
Forced                                   : No

Audio #3
ID                                       : 4
Format                                   : AC-3
Format/Info                              : Audio Coding 3
Commercial name                          : Dolby Digital
Codec ID                                 : A_AC3
Duration                                 : 2 h 4 min
Bit rate mode                            : Constant
Bit rate                                 : 192 kb/s
Channel(s)                               : 2 channels
Channel layout                           : L R
Sampling rate                            : 48.0 kHz
Frame rate                               : 31.250 FPS (1536 SPF)
Compression mode                         : Lossy
Delay relative to video                  : 24 ms
Stream size                              : 171 MiB (3%)
Title                                    : / 2.0 Ch / 192 kbps / БЗ / NTN
Language                                 : Ukrainian
Service kind                             : Complete Main
Default                                  : No
Forced                                   : No

Audio #4
ID                                       : 5
Format                                   : AC-3
Format/Info                              : Audio Coding 3
Commercial name                          : Dolby Digital
Codec ID                                 : A_AC3
Duration                                 : 2 h 4 min
Bit rate mode                            : Constant
Bit rate                                 : 448 kb/s
Channel(s)                               : 6 channels
Channel layout                           : L R C LFE Ls Rs
Sampling rate                            : 48.0 kHz
Frame rate                               : 31.250 FPS (1536 SPF)
Compression mode                         : Lossy
Stream size                              : 400 MiB (6%)
Title                                    : / 5.1 Ch / 448 kbps / Original
Language                                 : English
Service kind                             : Complete Main
Default                                  : No
Forced                                   : No

Text #1
ID                                       : 6
Format                                   : UTF-8
Codec ID                                 : S_TEXT/UTF8
Codec ID/Info                            : UTF-8 Plain Text
Duration                                 : 2 h 1 min
Bit rate                                 : 45 b/s
Count of elements                        : 1332
Stream size                              : 40.9 KiB (0%)
Title                                    : Full
Language                                 : English
Default                                  : No
Forced                                   : No

Text #2
ID                                       : 7
Format                                   : UTF-8
Codec ID                                 : S_TEXT/UTF8
Codec ID/Info                            : UTF-8 Plain Text
Duration                                 : 2 h 4 min
Bit rate                                 : 63 b/s
Count of elements                        : 2105
Stream size                              : 57.9 KiB (0%)
Title                                    : SDH
Language                                 : English
Default                                  : No
Forced                                   : No

Menu
00:00:00.000                             : en:Scorpion Clash (Credits, *It's Gonna Kill Me*)
00:02:44.247                             : en:Cheap Date
00:06:22.089                             : en:"Ready to Play?"
00:09:55.761                             : en:The King's Never Down
00:13:14.126                             : en:Money Hunt
00:16:02.502                             : en:Elvises Galore (*Trouble*)
00:19:44.307                             : en:The Robbery
00:23:52.188                             : en:The Shootout (*Come In Hard*)
00:29:06.994                             : en:Left the Building
00:33:05.983                             : en:Close Shave
00:35:10.607                             : en:New Rules
00:40:31.303                             : en:Body Disposal
00:42:21.246                             : en:$100,000 of Silence
00:46:51.307                             : en:On Their Way
00:50:29.317                             : en:About Murph (*Loaded Gun / In 2 Deep*)
00:55:54.851                             : en:Nasty Habits
00:57:06.464                             : en:Passenger Swap (*Bad to the Bone*)
00:59:40.993                             : en:Getaway With Candles (*Every Little Thing*)
01:04:07.885                             : en:Quick Draw
01:07:22.579                             : en:Keeping Things Honest
01:11:58.438                             : en:We're in Business
01:16:08.146                             : en:Murph's Handiwork
01:19:00.818                             : en:Two Stolen Cars
01:22:21.603                             : en:Behind Bars in Boise
01:26:21.008                             : en:Get Out of Jail Free
01:28:22.880                             : en:Lies and Goodbyes
01:32:05.602                             : en:Instant Wombat
01:35:16.001                             : en:Road Rage (*Angel Dust*)
01:41:07.811                             : en:In Murph's Hands
01:44:54.329                             : en:Tough Guys Gotta Eat
01:47:27.815                             : en:Faceoff
01:50:53.563                             : en:Bullets Taken
01:54:03.127                             : en:Recognize Me Now? (*My Way*)
01:58:42.197                             : en:Three on a Boat (*Follow Me*)
02:01:08.302                             : en:End Credits (*Such a Night*)
Світлини




Джерело: &
Особиста оцінка: 0 - не дивився


Срібний реліз (на рейтинг впливає 50% завантаженого)
 Трекер:    Зареєстрований   

Завантажити / скачати фільм українською



відео для новачків



 Зареєстрований:   2020-02-23 16:07
 Розмір:   6.65 GB 
 Оцінка фільму:   9.5/10 (Голосів: 4)
   
Anonymous 







2020-02-23 16:07  
Додано більш якісну доріжку від 
Ваш часовий пояс: GMT + 2 Години

Нова тема   Відповісти