Певний Науковий Рейлґан / A Certain Scientific Railgun / Toaru Kagaku no Rērugan (2010) 1080p Jap | Sub Ukr

Нові коментарі

Нова тема   Відповісти
Автор Повідомлення
Amanogawa 
VIP


З нами з: 27.09.17
Востаннє: 24.02.20
Повідомлень: 621

2020-01-05 16:44  
Певний Науковий Рейлґан / A Certain Scientific Railgun / Toaru Kagaku no Rērugan (серій 1 з 24) (2010) 1080p Jap | Sub Ukr

Певний Науковий Рейлґан / A Certain Scientific Railgun / Toaru Kagaku no Rērugan (2010) 1080p Jap | Sub Ukr


Жанр: бойовик, наукова фантастика, надприродне, шьонен
Країна: Японія



Кінокомпанія: J.C.Staff
Режисер: Tatsuyuki Nagai
Сюжет:
Академія Сіті – це технологічно розвинене місто, де більшість жителів складають учні, багато з яких мають надздібності. Найсильніші - це люди з п'ятим рівнем, серед них і наша головна героїня – принцеса електромагнетизму із середньої школи, Місака Мікото, відома як «Рейлґан» (Railgun). Вона також має хорошу подругу, яка здатна до телепортації та працює в місцевому органі безпеки «Джаджмент»(Judgement).
Кожного дня з ними трапляються неймовірні пригоди, пов'язані з надздібностями, які все ближче ведуть їх до розкриття страшної таємниці Академія сіті та таємних експериментів, що там проводяться.
"У цьому місті ніколи не буває нудно" - Місака Мікото


Тривалість: 00:24:00 на серію
Перелік серій:

1."Electromaster" (Електромайстер)
2. "When Working Under a Hot Sun, Rehydration is Essential"
Якість:
Відео:
кодек:
розмір кадру: 1920*1080
бітрейт: 3 160 кб/с

Аудіо:
мова: японська
переклад: оригінал
кодек: 2.0
бітрейт: 128 кб/с

Субтитри:
мова: українська
тип: програмні (м'які)
формат: *.
Info
General
Unique ID : 191765297925506095915935715700252740320 (0x9044A7282F11FACB2501FD5E6E1E0AE0)
Complete name : D:\Певний науковий рейкотрон (Сезон 1) [Mitsuruki]\01 - Певний Науковий Рейкотрон.
Format :
Format version : Version 4
File size : 556 MiB
Duration : 23 min 43 s
Overall bit rate mode : Variable
Overall bit rate : 3 277 kb/s
Encoded date : UTC 2020-01-05 12:29:42
Writing application : v36.0.0 ('Is That Jazz?') 64-bit
Writing library : libebml v1.3.9 + v1.5.2

Video
ID : 2
Format : AVC
Format/Info : Advanced Video Codec
Format profile : [email protected]
Format settings : CABAC / 3 Ref Frames
Format settings, CABAC : Yes
Format settings, Reference : 3 frames
Codec ID : V_MPEG4/ISO/AVC
Duration : 23 min 43 s
Bit rate mode : Variable
Bit rate : 3 160 kb/s
Maximum bit rate : 4 740 kb/s
Width : 1 920 pixels
Height : 1 080 pixels
Display aspect ratio : 16:9
Frame rate mode : Constant
Frame rate : 23.976 (24000/1001) FPS
Color space : YUV
Chroma subsampling : 4:2:0
Bit depth : 8 bits
Scan type : Progressive
Bits/(Pixel*Frame) : 0.064
Stream size : 534 MiB (96%)
Writing library : core 148
Encoding settings : cabac=1 / ref=3 / deblock=1:0:0 / analyse=0x1:0x111 / me=umh / subme=10 / psy=1 / psy_rd=1.00:0.00 / mixed_ref=1 / me_range=24 / chroma_me=1 / trellis=2 / 8x8dct=0 / cqm=0 / deadzone=21,11 / fast_pskip=1 / chroma_qp_offset=-2 / threads=6 / lookahead_threads=1 / sliced_threads=0 / nr=0 / decimate=1 / interlaced=0 / bluray_compat=0 / stitchable=1 / constrained_intra=0 / bframes=2 / b_pyramid=0 / b_adapt=2 / b_bias=0 / direct=3 / weightb=1 / open_gop=0 / weightp=2 / keyint=48 / keyint_min=25 / scenecut=0 / intra_refresh=0 / rc_lookahead=48 / rc=2pass / mbtree=1 / bitrate=3160 / ratetol=1.0 / qcomp=0.50 / qpmin=6 / qpmax=51 / qpstep=4 / cplxblur=20.0 / qblur=0.5 / vbv_maxrate=4740 / vbv_bufsize=6320 / nal_hrd=vbr / filler=0 / ip_ratio=1.40 / aq=1:1.00
Language : Japanese
Default : Yes
Forced : No

Audio
ID : 3
Format : E-AC-3
Format/Info : Enhanced AC-3
Commercial name : Dolby Digital Plus
Codec ID : A_EAC3
Duration : 23 min 43 s
Bit rate mode : Constant
Bit rate : 128 kb/s
Channel(s) : 2 channels
Channel layout : L R
Sampling rate : 48.0 kHz
Frame rate : 31.250 FPS (1536 SPF)
Compression mode : Lossy
Stream size : 21.7 MiB (4%)
Language : Japanese
Service kind : Complete Main
Default : Yes
Forced : No

Text
ID : 1
Format :
Codec ID : S_TEXT/
Codec ID/Info : Advanced Sub Station Alpha
Duration : 23 min 39 s
Bit rate : 192 b/s
Count of elements : 364
Compression mode : Lossless
Stream size : 33.3 KiB (0%)
Title : Mitsuruki
Language : Ukrainian
Default : Yes
Forced : Yes
Скріншоти




Переклад:DevilDarkSider, Romix
Редагування:Romix

Джерело: Erai-Raws
& Переклади Mitsuruki

Особиста оцінка: 9 - давно не бачив настільки якісне кіно


Золотий реліз (завантажене не впливає на рейтинг)
 Трекер:    Зареєстрований   

Завантажити / скачати аніме українською



відео для новачків



 Зареєстрований:   2020-01-05 19:05
 Розмір:   556 MB 
 Оцінка аніме:   10/10 (Голосів: 4)
   
Amanogawa 
VIP


З нами з: 27.09.17
Востаннє: 24.02.20
Повідомлень: 621

2020-01-05 16:46  
Перша серія. Постер оновиться. Пишіть, якщо що не так
Traktorist8 
Свій


З нами з: 07.04.14
Востаннє: 24.02.20
Повідомлень: 53

2020-01-05 18:32  
Неймовірний саундтрек у цього аніме! Та й саме воно досить динамічне)

Не хочу здатися невдячварою, але мені трохи незрозуміла логіка перекладу… Англійські терміни перекладені вибірково. Тобто, якщо вже «Рейкотрон», то має бути і «Правосуддя», а не «Джаджмент». Або можна було б залишити як є в оригіналі: «Рейлган» і «Джаджмент»…

Amanogawa 
VIP


З нами з: 27.09.17
Востаннє: 24.02.20
Повідомлень: 621

2020-01-05 19:04  
Змінено назву на Рейлґан з логічних причин, новий торрент файл.
Ваш часовий пояс: GMT + 2 Години

Нова тема   Відповісти