Закоханий Астероїд (Cезон 1) / Koisuru Asteroid (2020) 1080p Jap | sub Ukr

Нові коментарі

Нова тема   Відповісти
Автор Повідомлення
Amanogawa 
VIP


З нами з: 27.09.17
Востаннє: 07.04.20
Повідомлень: 649

2020-01-05 12:47  
Закоханий Астероїд (Повний сезон) / Koisuru Asteroid (2020) 1080p Jap | sub Ukr

Закоханий Астероїд (Cезон 1) / Koisuru Asteroid (2020) 1080p Jap | sub Ukr


Жанр: Буденність, Комедія
Країна: Японія




Кінокомпанія: Doga Kobo
Режисер: Хірамакі Дайске
Сюжет:
Колись давно, у поході з батьками, маленька Міра зустріла хлопчика на ім'я Ао. Саме він розбудив в ній любов до зірок. Вони пообіцяли разом знайти астероїд в небі, щоб назвати його іменем хлопчика.
Пройшов час, і вже старшокласниця Міра знову зустрічає Ао… от тільки виявляється, що він ніколи й не був хлопчиком — це дівчинка, що ходила в дитинстві з коротким волоссям. Як би не було, а дівчата зберегли обіцянку разом відкрити астероїд і тепер робитимуть це в шкільному клубі геонауки.

Тривалість: приблизно 24 хв на серію.
Список серій

01 Їхня обіцянка
02 Чумацький шлях на березі річки
03 Спогади - це багатство
04 Уря, уря! Літній табір!
05 Літні канікули
06 Зоряний фестиваль!
07 Зоряне небо — це машина часу
08 Зимовий діамант
09 Справжні почуття
10 Дощ, часом передбачення долі
11 Змагання Блискуча Зірка
12 З'єднані Всесвіти
Якість:
Відео:
кодек:
розмір кадру: 1920 х 1080
бітрейт: 8000 кб/с

Аудіо:
мова: японська
переклад: оригінал
кодек: 2.0
бітрейт: 128 кб/с

Субтитри:
мова: українська
тип: програмні (м'які)
формат: *.
Info
General
Unique ID : 66786214196815857104340467739779061385 (0x323E8E96338BDA97FC1289C7F442D689)
Complete name : E:\Video\Закоханий астероїд [Mitsuruki]\Koisuru Asteroid - 01.
Format :
Format version : Version 4
File size : 1.34 GiB
Duration : 23 min 40 s
Overall bit rate : 8 112 kb/s
Encoded date : UTC 2020-01-05 09:20:07
Writing application : v30.1.0 ('Forever And More') 64-bit
Writing library : libebml v1.3.6 + v1.4.9
Attachments : OpenSans-Semibold.ttf

Video
ID : 1
Format : AVC
Format/Info : Advanced Video Codec
Format profile : [email protected]
Format settings : CABAC / 4 Ref Frames
Format settings, CABAC : Yes
Format settings, Reference : 4 frames
Format settings, GOP : N=1
Codec ID : V_MPEG4/ISO/AVC
Duration : 23 min 40 s
Bit rate : 8 000 kb/s
Width : 1 920 pixels
Height : 1 080 pixels
Display aspect ratio : 16:9
Frame rate mode : Constant
Frame rate : 23.976 (24000/1001) FPS
Color space : YUV
Chroma subsampling : 4:2:0
Bit depth : 8 bits
Scan type : Progressive
Bits/(Pixel*Frame) : 0.161
Stream size : 1.32 GiB (98%)
Writing library : core 142
Encoding settings : cabac=1 / ref=4 / deblock=1:1:1 / analyse=0x3:0x113 / me=umh / subme=8 / psy=1 / psy_rd=0.40:0.00 / mixed_ref=1 / me_range=16 / chroma_me=1 / trellis=1 / 8x8dct=1 / cqm=0 / deadzone=21,11 / fast_pskip=1 / chroma_qp_offset=-2 / threads=12 / lookahead_threads=2 / sliced_threads=0 / nr=0 / decimate=1 / interlaced=0 / bluray_compat=0 / constrained_intra=0 / bframes=0 / weightp=2 / keyint=96 / keyint_min=48 / scenecut=40 / intra_refresh=0 / rc_lookahead=48 / rc=2pass / mbtree=1 / bitrate=8000 / ratetol=1.0 / qcomp=0.60 / qpmin=0 / qpmax=69 / qpstep=4 / cplxblur=20.0 / qblur=0.5 / vbv_maxrate=12000 / vbv_bufsize=18000 / nal_hrd=none / filler=0 / ip_ratio=1.40 / aq=1:0.60
Default : Yes
Forced : No

Audio
ID : 2
Format : LC
Format/Info : Advanced Audio Codec Low Complexity
Codec ID : A_AAC-2
Duration : 23 min 40 s
Bit rate : 128 kb/s
Channel(s) : 2 channels
Channel layout : L R
Sampling rate : 44.1 kHz
Frame rate : 43.066 FPS (1024 SPF)
Compression mode : Lossy
Stream size : 21.7 MiB (2%)
Language : Japanese
Default : Yes
Forced : No

Text
ID : 3
Format :
Codec ID : S_TEXT/
Codec ID/Info : Advanced Sub Station Alpha
Duration : 23 min 18 s
Bit rate : 232 b/s
Count of elements : 429
Compression mode : Lossless
Stream size : 39.7 KiB (0%)
Title : Mitsuruki
Language : Ukrainian
Default : Yes
Forced : Yes
Скріншоти



Джерело: HorribleSubs & Переклади Amanogawa
Переклад: Furunze, Romix, Току
Особиста оцінка:

Робота від творців Вататену. Як на першу серію — це спроба зробити щось… серйозне? Якщо не серйозне, то щось душевне. Спокійна мелодія опенінгу та ендингу натякають, що це буде не просто комедія. У мене великі очікування на цей серіал


Золотий реліз (завантажене не впливає на рейтинг)
 Трекер:    Зареєстрований   

Завантажити / скачати аніме українською



відео для новачків



 Зареєстрований:   2020-03-28 21:46
 Розмір:   16.11 GB 
 Оцінка аніме:   10/10 (Голосів: 3)
   
Amanogawa 
VIP


З нами з: 27.09.17
Востаннє: 07.04.20
Повідомлень: 649

2020-01-13 18:09  
Додали другу серію, вибачте за затримку.

Перейменували основну теку, зверніть увагу.

Amanogawa 
VIP


З нами з: 27.09.17
Востаннє: 07.04.20
Повідомлень: 649

2020-01-22 23:40  
Додали третю серію!!!!
Amanogawa 
VIP


З нами з: 27.09.17
Востаннє: 07.04.20
Повідомлень: 649

2020-01-25 21:54  
ДОдали четверту серію!!
Amanogawa 
VIP


З нами з: 27.09.17
Востаннє: 07.04.20
Повідомлень: 649

2020-02-01 22:36  
Додали п'яту серію!
Amanogawa 
VIP


З нами з: 27.09.17
Востаннє: 07.04.20
Повідомлень: 649

2020-02-09 22:44  
Додали шосту серію.

Наступного тижня скоріше за все буде рекап, тож ми його перекладати не будемо.

Amanogawa 
VIP


З нами з: 27.09.17
Востаннє: 07.04.20
Повідомлень: 649

2020-02-22 18:24  
Додали сьому серію.

Минулого тижня був рекап, тому й серії не було.

11FrYkT 
Модератор відео


З нами з: 20.02.11
Востаннє: 07.04.20
Повідомлень: 6707

2020-02-22 23:11  
Amanogawa , додайте перелік серій і їх назви
Amanogawa 
VIP


З нами з: 27.09.17
Востаннє: 07.04.20
Повідомлень: 649

2020-02-23 10:39  
Виправили помилки в 7-й серії, оновили роздачу.
Amanogawa 
VIP


З нами з: 27.09.17
Востаннє: 07.04.20
Повідомлень: 649

2020-03-09 15:24  
Додали 8 і 9 серії!
Amanogawa 
VIP


З нами з: 27.09.17
Востаннє: 07.04.20
Повідомлень: 649

2020-03-15 15:31  
Додали десяту серію!
Amanogawa 
VIP


З нами з: 27.09.17
Востаннє: 07.04.20
Повідомлень: 649

2020-03-28 21:47  
Додали 12ту серію!
Переклад завершено!

Ваш часовий пояс: GMT + 2 Години

Нова тема   Відповісти