Третій зайвий / The Third Wheel (2002) 1080p 2xUkr/Eng | Sub Eng

Нові коментарі

Нова тема   Відповісти
Останній раз роздавалося yzich (2020-04-05)
Автор Повідомлення
Anonymous 







2020-01-05 02:45  
Третій зайвий / The Third Wheel (2002) 1080p 2xUkr/Eng | Sub Eng

Третій зайвий / The Third Wheel (2002) 1080p 2xUkr/Eng | Sub Eng


Жанр: романтичний, комедія
Країна: США
Кінокомпанія: HSI Tomorrow Film
Режисер: Джордан Брейді
Актори: Люк Вілсон, Деніз Річардс, Джей Лакопо, Бен Аффлек, Філл Льюїс, Дебора Тікер, Мелісса Маккарті та Мет Деймон.

Сюжет:
У компанії з'являється новий працівник - красуня Діана. На неї відразу ж западає Стенлі - службовець цієї компанії. Але є одна проблема - у Діани є бойфренд. Випадково, друг Стенлі довідується, що вона залишилася одна. Наступає зоряна година для Стенлі. Але у найвідповідальніший момент на їхньому романтичному побаченні з'являється... третій зайвий.

Тривалість: 01:26:23
Якість:

Відео:
кодек:
розмір кадру: 1920 x 1080
бітрейт: 13 749 кб/с

Аудіо # 1:
мова: українська
переклад: багатоголосий закадровий
кодек: AC-3 2.0
бітрейт: 192 кб/с

Аудіо # 2:
мова: українська
переклад: багатоголосий закадровий
кодек: AC-3 2.0
бітрейт: 192 кб/с

Аудіо # 3:
мова: англійська
переклад: оригінал
кодек: E-AC-3 5.1
бітрейт: 640 кб/с

Субтитри # 1-3: (Full v1, Full v2, SDH)
мова: англійська
тип: програмні (м'які)
формат: *.srt


Info
Код:
General
Unique ID                                : 251284716354397816158460975988445303150 (0xBD0BAD0CFC0C98CCF8A4E07D83FC516E)
Complete name                            : The Third Wheel (2002) 1080p [2xUKR_ENG] [Hurtom].
Format                                   :
Format version                           : Version 4
File size                                : 8.92 GiB
Duration                                 : 1 h 26 min
Overall bit rate mode                    : Variable
Overall bit rate                         : 14.8 Mb/s
Movie name                               : Третій зайвий / The Third Wheel (2002)
Encoded date                             : UTC 2020-01-04 23:40:59
Writing application                      : v20.0.0 ('I Am The Sun') 64-bit
Writing library                          : libebml v1.3.5 + v1.4.8
Cover                                    : Yes
Attachments                              : cover.jpg

Video
ID                                       : 1
Format                                   : AVC
Format/Info                              : Advanced Video Codec
Format profile                           : [email protected]
Format settings                          : CABAC / 4 Ref Frames
Format settings, CABAC                   : Yes
Format settings, Reference frames        : 4 frames
Codec ID                                 : V_MPEG4/ISO/AVC
Duration                                 : 1 h 26 min
Bit rate mode                            : Variable
Bit rate                                 : 13.7 Mb/s
Maximum bit rate                         : 15.0 Mb/s
Width                                    : 1 920 pixels
Height                                   : 1 080 pixels
Display aspect ratio                     : 16:9
Frame rate mode                          : Constant
Frame rate                               : 23.976 (24000/1001) FPS
Color space                              : YUV
Chroma subsampling                       : 4:2:0
Bit depth                                : 8 bits
Scan type                                : Progressive
Bits/(Pixel*Frame)                       : 0.277
Stream size                              : 8.30 GiB (93%)
Title                                    : Третій зайвий / The Third Wheel (2002)
Writing library                          : core 148 r2623 d5b2374
Encoding settings                        : cabac=1 / ref=4 / deblock=1:-1:-1 / analyse=0x3:0x133 / me=umh / subme=9 / psy=1 / psy_rd=1.00:0.15 / mixed_ref=1 / me_range=24 / chroma_me=1 / trellis=2 / 8x8dct=1 / cqm=0 / deadzone=21,11 / fast_pskip=1 / chroma_qp_offset=-3 / threads=34 / lookahead_threads=5 / sliced_threads=0 / nr=150 / decimate=1 / interlaced=0 / bluray_compat=0 / constrained_intra=0 / bframes=8 / b_pyramid=2 / b_adapt=2 / b_bias=0 / direct=3 / weightb=1 / open_gop=0 / weightp=2 / keyint=120 / keyint_min=61 / scenecut=0 / intra_refresh=0 / rc_lookahead=120 / rc=crf / mbtree=1 / crf=18.0 / qcomp=0.60 / qpmin=0 / qpmax=69 / qpstep=4 / vbv_maxrate=15000 / vbv_bufsize=31250 / crf_max=0.0 / nal_hrd=vbr / filler=0 / ip_ratio=1.40 / aq=3:1.00
Language                                 : English
Default                                  : Yes
Forced                                   : No
Color range                              : Limited
Color primaries                          : BT.709
Transfer characteristics                 : BT.709
Matrix coefficients                      : BT.709

Audio #1
ID                                       : 2
Format                                   : AC-3
Format/Info                              : Audio Coding 3
Commercial name                          : Dolby Digital
Codec ID                                 : A_AC3
Duration                                 : 1 h 26 min
Bit rate mode                            : Constant
Bit rate                                 : 192 kb/s
Channel(s)                               : 2 channels
Channel layout                           : L R
Sampling rate                            : 48.0 kHz
Frame rate                               : 31.250 FPS (1536 SPF)
Bit depth                                : 16 bits
Compression mode                         : Lossy
Stream size                              : 119 MiB (1%)
Title                                    : / 2.0 Ch / 192 kbps / БЗ / AMC
Language                                 : Ukrainian
Service kind                             : Complete Main
Default                                  : Yes
Forced                                   : Yes

Audio #2
ID                                       : 3
Format                                   : AC-3
Format/Info                              : Audio Coding 3
Commercial name                          : Dolby Digital
Codec ID                                 : A_AC3
Duration                                 : 1 h 26 min
Bit rate mode                            : Constant
Bit rate                                 : 192 kb/s
Channel(s)                               : 2 channels
Channel layout                           : L R
Sampling rate                            : 48.0 kHz
Frame rate                               : 31.250 FPS (1536 SPF)
Bit depth                                : 16 bits
Compression mode                         : Lossy
Stream size                              : 119 MiB (1%)
Title                                    : / 2.0 Ch / 192 kbps / БЗ / Kino
Language                                 : Ukrainian
Service kind                             : Complete Main
Default                                  : No
Forced                                   : No

Audio #3
ID                                       : 4
Format                                   : E-AC-3
Format/Info                              : Enhanced AC-3
Commercial name                          : Dolby Digital Plus
Codec ID                                 : A_EAC3
Duration                                 : 1 h 26 min
Bit rate mode                            : Constant
Bit rate                                 : 640 kb/s
Channel(s)                               : 6 channels
Channel layout                           : L R C LFE Ls Rs
Sampling rate                            : 48.0 kHz
Frame rate                               : 31.250 FPS (1536 SPF)
Compression mode                         : Lossy
Stream size                              : 395 MiB (4%)
Title                                    : E- / 5.1 Ch / 640 kbps / Original
Language                                 : English
Service kind                             : Complete Main
Default                                  : No
Forced                                   : No

Text #1
ID                                       : 5
Format                                   : UTF-8
Codec ID                                 : S_TEXT/UTF8
Codec ID/Info                            : UTF-8 Plain Text
Duration                                 : 1 h 21 min
Bit rate                                 : 79 b/s
Count of elements                        : 1217
Stream size                              : 47.4 KiB (0%)
Title                                    : Full v1
Language                                 : English
Default                                  : No
Forced                                   : No

Text #2
ID                                       : 6
Format                                   : UTF-8
Codec ID                                 : S_TEXT/UTF8
Codec ID/Info                            : UTF-8 Plain Text
Duration                                 : 1 h 26 min
Bit rate                                 : 85 b/s
Count of elements                        : 1941
Stream size                              : 53.6 KiB (0%)
Title                                    : Full v2
Language                                 : English
Default                                  : No
Forced                                   : No

Text #3
ID                                       : 7
Format                                   : UTF-8
Codec ID                                 : S_TEXT/UTF8
Codec ID/Info                            : UTF-8 Plain Text
Duration                                 : 1 h 26 min
Bit rate                                 : 92 b/s
Count of elements                        : 2167
Stream size                              : 58.1 KiB (0%)
Title                                    : SDH
Language                                 : English
Default                                  : No
Forced                                   : No

Menu
00:00:00.000                             : en:"The New Girl"
00:06:59.624                             : en:Windows Of Opportunity
00:18:29.624                             : en:The Bets Are In
00:22:18.624                             : en:At The Restaurant
00:27:51.624                             : en:Phil's Settlement
00:34:24.624                             : en:Advice And An X-Ray
00:42:00.624                             : en:"I Like Bread"
00:49:49.624                             : en:"Who's On The Bus?"
00:54:55.624                             : en:Shared Moments
00:55:27.624                             : en:Unwinding
01:00:36.624                             : en:Enter The Ex
01:03:57.624                             : en:Phil's Menagerie
01:10:35.624                             : en:I'm Not
01:22:07.624                             : en:End Credits
Світлини




Джерело: &
Особиста оцінка: 0 - не дивився


Срібний реліз (на рейтинг впливає 50% завантаженого)
 Трекер:    Зареєстрований   

Завантажити / скачати фільм українською



відео для новачків



 Зареєстрований:   2020-01-05 02:45
 Розмір:   8.92 GB 
 Оцінка фільму:   8/10 (Голосів: 3)
   
Інші релізи
Ваш часовий пояс: GMT + 2 Години

Нова тема   Відповісти