Останній справжній чоловік (Сезони 4-7) / Last Man Standing (Seasons 4-7) (2014-2019) 720p Ukr/Eng

Нові коментарі

Нова тема   Відповісти
Автор Повідомлення
Anonymous 







2020-01-04 22:45  
Останній справжній чоловік (Сезони 4-7) / Last Man Standing (Seasons 4-7) (2014-2019) 720p Ukr/Eng

Останній справжній чоловік (Сезони 4-7) / Last Man Standing (Seasons 4-7) (2014-2019) 720p Ukr/Eng


Жанр: комедія
Країна: США



Кінокомпанія: 21 Laps Entertainment, Marty Adelstein Productions, Double Wide Productions
Режисер: Джек Бурдітт (Jack Burditt), Джон Галлер (Jon Haller) та інші
Актори: Тім Аллен (Tim Allen), Ненсі Тревіс (Nancy Travis), Моллі Ефраїм (Molly Ephraim), Кейтлін Дівер (Kaitlyn Dever), Гектор Елізондо (Hector Elizondo), Крістоф Сандерс (Christoph Sanders), Аманда Фуллер (Amanda Fuller) та інші

Сюжет:
Майк Бакстер - маркетинговий директор одного зі спортивних магазинів. Він хоче зробити так, щоб усі чоловіки посідали гідне місце в суспільстві. На роботі Майк керує підлеглими, а вдома йому доводиться підкорятися своєму жіноцтву: дружині Ванессі й трьом донькам - Крістін, Менді та Ів. Чоловік цікавиться політикою і веде відеоблог, в якому іронічно коментує події в країні та в світі. А спокою йому не дає те, що на роботі він - керівник і поважна людина, а вдома йому постійно доводиться виконувати забаганки своїх дівчаток.


Тривалість: 1 серія: ~21 хв. (цілком серій: 88)
Перелік серій
Сезон 4
01) Here's the Kicker
02) War Games
03) Rediscover America
04) Sinkhole
05) School Merger
06) Mike Advises Mandy
07) Big Shots
08) Risky Behavior
09) Changing Light Bulbs
10) Outdoor Man Grill
11) Wedding Planning
12) Helen Potts
13) Mike Hires Chuck
14) Eve's Breakup
15) Big Brother
16) Three Sundays
17) Kyle's Friend
18) Mandy's Party
19) Summer Internship
20) Restaurant Opening
21) Vanessa Fixes Up Eve
22) Daddy Dearest
Сезон 5
01) The Wolf Returns
02) Free Range Parents
03) Ping-Pong
04) Educating Boyd
05) The Road Less Driven
06) Halloween
07) The Dad Hat
08) The Big Sleepover
09) The Gratitude List
10) The Puck Stops Here
11) Gift of the Wise Man
12) Polar Run
13) Mike and the Mechanics
14) The Ring
15) Home Sweet Loan
16) Eve's Band
17) Tanks for the Memories
18) He Shed, She Shed
19) Outdoor Woman
20) Tattoo
21) The Marriage Doctor
22) The Shortcut
Сезон 6
01) Papa Bear
02) Gameday Forecast: Showers
03) Where There's Smoke, There's Ire
04) Boyd Will Be Boyd
05) Trick or Treat
06) A New Place for One of Our People
07) Bridezilla vs. the Baxters
08) My Father the Car
09) Precious Snowflakes
10) Help Wanted
11) My Name Is Rob
12) Three Sisters
13) Explorers
14) A House Divided
15) The Fixer
16) The Force
17) The Friending Library
18) Take Me to Church
19) House of Tutor
20) Heavy Meddle
21) Bad Heir Day
22) Shadowboxing
Сезон 7
01) Welcome Baxter
02) Man vs. Myth
03) Giving Mike the Business
04) Bride of Prankenstein
05) One Flew Into the Empty Nest
06) The Courtship of Vanessa's Mother
07) Dreams vs. Realty
08) HR's Rough n' Stuff
09) The Gift of the Mike Guy
10) Three for the Road
11) Common Ground
12) Cabin Pressure
13) The Best Man
14) Sibling Quibbling
15) Arrest Her Development
16) Urban Exploring
17) Cards on the Table
18) Otherwise Engaged
19) The Passion of Paul
20) Yass Queen
21) The Favorite
22) A Moving Finale
Якість:
Відео:
кодек:
розмір кадру: 1280 x 720
бітрейт: 3-5 мб/с

Аудіо # 1:
мова: українська
переклад: багатоголосий закадровий | Paramount Comedy
кодек: 2.0
бітрейт: 192 кб/с

Аудіо # 2:
мова: англійська
переклад: оригінал
кодек: 5.1
бітрейт: 394 кб/с
Info
General
Unique ID : 22413215968724488488219198105507904974 (0x10DCA0DD6874D2EF15BE17C1C9DCBDCE)
Complete name : F:\Support\series\Last Man Standing [, 720p, Ukr, Eng]\Season 4\Last Man Standing. s04e02. War Games.
Format :
Format version : Version 4
File size : 731 MiB
Duration : 21 min 41 s
Overall bit rate : 4 710 kb/s
Encoded date : UTC 2019-12-15 20:03:14
Writing application : v41.0.0 ('Smarra') 64-bit
Writing library : libebml v1.3.9 + v1.5.2

Video
ID : 1
Format : AVC
Format/Info : Advanced Video Codec
Format profile : [email protected]
Format settings : 2 Ref Frames
Format settings, CABAC : No
Format settings, Reference : 2 frames
Codec ID : V_MPEG4/ISO/AVC
Duration : 21 min 41 s
Bit rate : 4 132 kb/s
Width : 1 280 pixels
Height : 720 pixels
Display aspect ratio : 16:9
Frame rate mode : Constant
Frame rate : 23.976 (23976/1000) FPS
Color space : YUV
Chroma subsampling : 4:2:0
Bit depth : 8 bits
Scan type : Progressive
Bits/(Pixel*Frame) : 0.187
Stream size : 641 MiB (88%)
Language : English
Default : Yes
Forced : No
Color range : Limited
Color primaries : BT.709
Transfer characteristics : BT.709
Matrix coefficients : BT.709

Audio #1
ID : 2
Format : AC-3
Format/Info : Audio Coding 3
Commercial name : Dolby Digital
Codec ID : A_AC3
Duration : 21 min 41 s
Bit rate mode : Constant
Bit rate : 192 kb/s
Channel(s) : 2 channels
Channel layout : L R
Sampling rate : 48.0 kHz
Frame rate : 31.250 FPS (1536 SPF)
Compression mode : Lossy
Stream size : 29.8 MiB (4%)
Title : Paramount Comedy
Language : Ukrainian
Service kind : Complete Main
Default : Yes
Forced : No

Audio #2
ID : 3
Format : AC-3
Format/Info : Audio Coding 3
Commercial name : Dolby Digital
Codec ID : A_AC3
Duration : 21 min 41 s
Bit rate mode : Constant
Bit rate : 384 kb/s
Channel(s) : 6 channels
Channel layout : L R C LFE Ls Rs
Sampling rate : 48.0 kHz
Frame rate : 31.250 FPS (1536 SPF)
Compression mode : Lossy
Stream size : 59.6 MiB (8%)
Language : English
Service kind : Complete Main
Default : No
Forced : No
Скріншоти

Українську доріжку до сезонів 4-6 та до серій 7x13, 7x14 взято з релізу https://toloka.to/t89133

Джерело: &
Особиста оцінка: 0 - не дивився





Золотий реліз (завантажене не впливає на рейтинг)
 Трекер:    Зареєстрований   

Завантажити / скачати серіал українською



відео для новачків



 Зареєстрований:   2020-05-25 20:35
 Розмір:   61 GB 
 Оцінка серіалу:   9.8/10 (Голосів: 6)
   
Anonymous 







2020-05-25 20:39  
Торент оновлено, замінено серії 7x13, 7x14 на кращу якість. Тепер усі файли 720p.

Якщо у вас була стара роздача, перед завантаженням видаліть вказані серії.

Ваш часовий пояс: GMT + 2 Години

Нова тема   Відповісти