Ірландець / The Irishman (2019) UHD 2160p HDR H.265 Ukr/Eng | Sub Eng

Нові коментарі

Нова тема   Відповісти
Автор Повідомлення
Anonymous 







2020-01-04 17:42  
Ірландець / The Irishman (2019) UHD 2160p HDR H.265 Ukr/Eng | Sub Eng

Ірландець / The Irishman (2019) UHD 2160p HDR H.265 Ukr/Eng | Sub Eng


Жанр: біографія, кримінальний, драма
Країна: США
Кінокомпанія: Fábrica de Cine, STX Entertainment, Sikelia Productions
Режисер: Мартін Скорсезе
Актори: Роберт де Ніро, Аль Пачіно, Джо Пеші, Анна Паквін, Джессі Племонс, Стівен Ґрем, Боббі Каннавале, Гарві Кейтель, Кетрін Нардуччі, Джек Г'юстон та інші

Сюжет:
Історія про Френка Ширена на прізвисько Ірландець, якому приписують вбивство 25 гангстерів, включаючи самого Джиммі Гоффу.

Тривалість: 03:28:14
Якість:

Відео:
кодек: H.265 (HEVC)
розмір кадру: 3840 x 2080
бітрейт: 17 282 кб/с
бітова глибина: 10 біт

Увага! Перед завантаженням переконайтесь, що ваш пристрій відтворення (та/або ПЗ) підтримує H.265 (HEVC)

Аудіо # 1:
мова: українська
переклад: багатоголосий закадровий | DniproFilm
кодек: AC-3 5.1
бітрейт: 640 кб/с

Аудіо # 2:
мова: англійська
переклад: оригінал
кодек: E-AC-3 5.1
бітрейт: 768 кб/с

Субтитри # 1-2: (Forced, Full)
мова: англійська
тип: програмні (м'які)
формат: *.srt


Info
Код:
General
Unique ID                                : 11995501102029575309702842130059928499 (0x9063FDDBA1157B69C156DA6897AA3B3)
Complete name                            : The Irishman (2019) UHD 2160p HDR H.265 [UKR_ENG] [Hurtom].
Format                                   :
Format version                           : Version 4
File size                                : 27.2 GiB
Duration                                 : 3 h 29 min
Overall bit rate                         : 18.6 Mb/s
Movie name                               : Ірландець / The Irishman (2019)
Encoded date                             : UTC 2020-01-04 15:33:31
Writing application                      : v20.0.0 ('I Am The Sun') 64-bit
Writing library                          : libebml v1.3.5 + v1.4.8
Cover                                    : Yes
Attachments                              : cover.jpg

Video
ID                                       : 1
Format                                   : HEVC
Format/Info                              : High Efficiency Video Coding
Format profile                           : Main [email protected]@High
HDR format                               : SMPTE ST 2086, HDR10 compatible
Codec ID                                 : V_MPEGH/ISO/HEVC
Duration                                 : 3 h 28 min
Bit rate                                 : 17.3 Mb/s
Width                                    : 3 840 pixels
Height                                   : 2 080 pixels
Display aspect ratio                     : 1.85:1
Frame rate mode                          : Constant
Frame rate                               : 24.000 FPS
Color space                              : YUV
Chroma subsampling                       : 4:2:0 (Type 2)
Bit depth                                : 10 bits
Bits/(Pixel*Frame)                       : 0.090
Stream size                              : 25.1 GiB (92%)
Title                                    : Ірландець / The Irishman (2019)
Language                                 : English
Default                                  : Yes
Forced                                   : No
Color range                              : Limited
Color primaries                          : BT.2020
Transfer characteristics                 : PQ
Matrix coefficients                      : BT.2020 non-constant
Mastering display color primaries        : Display P3
Mastering display luminance              : min: 0.0001 cd/m2, max: 1000 cd/m2
Maximum Content Light Level              : 1014 cd/m2
Maximum Frame-Average Light Level        : 263 cd/m2

Audio #1
ID                                       : 2
Format                                   : AC-3
Format/Info                              : Audio Coding 3
Commercial name                          : Dolby Digital
Codec ID                                 : A_AC3
Duration                                 : 3 h 29 min
Bit rate mode                            : Constant
Bit rate                                 : 640 kb/s
Channel(s)                               : 6 channels
Channel layout                           : L R C LFE Ls Rs
Sampling rate                            : 48.0 kHz
Frame rate                               : 31.250 FPS (1536 SPF)
Bit depth                                : 16 bits
Compression mode                         : Lossy
Delay relative to video                  : 1 s 16 ms
Stream size                              : 958 MiB (3%)
Title                                    : / 5.1 Ch / 640 kbps / БЗ / DniproFilm
Language                                 : Ukrainian
Service kind                             : Complete Main
Default                                  : Yes
Forced                                   : Yes

Audio #2
ID                                       : 3
Format                                   : E-AC-3 JOC
Format/Info                              : Enhanced AC-3 with Joint Object Coding
Commercial name                          : Dolby Digital Plus with Dolby Atmos
Codec ID                                 : A_EAC3
Duration                                 : 3 h 29 min
Bit rate mode                            : Constant
Bit rate                                 : 768 kb/s
Channel(s)                               : 6 channels
Channel layout                           : L R C LFE Ls Rs
Sampling rate                            : 48.0 kHz
Frame rate                               : 31.250 FPS (1536 SPF)
Compression mode                         : Lossy
Delay relative to video                  : 1 s 16 ms
Stream size                              : 1.12 GiB (4%)
Title                                    : E- / 5.1 Ch / 768 kbps / Original
Language                                 : English
Service kind                             : Complete Main
Default                                  : No
Forced                                   : No
Complexity index                         : 16
Number of dynamic objects                : 15
Bed channel count                        : 1 channel
Bed channel configuration                : LFE

Text #1
ID                                       : 4
Format                                   : UTF-8
Codec ID                                 : S_TEXT/UTF8
Codec ID/Info                            : UTF-8 Plain Text
Duration                                 : 57 s 292 ms
Bit rate                                 : 47 b/s
Count of elements                        : 17
Stream size                              : 343 Bytes (0%)
Title                                    : Forced
Language                                 : English
Default                                  : No
Forced                                   : No

Text #2
ID                                       : 5
Format                                   : UTF-8
Codec ID                                 : S_TEXT/UTF8
Codec ID/Info                            : UTF-8 Plain Text
Duration                                 : 3 h 16 min
Bit rate                                 : 69 b/s
Count of elements                        : 2927
Stream size                              : 101 KiB (0%)
Title                                    : Full
Language                                 : English
Default                                  : No
Forced                                   : No
Світлини




Подяка користувачам, що фінансово допомогли озвученню:
Korleone, Tarasyk, NemoInFire, N.W.A, NeetScrool, havryk, mrgalser, gudyma_s, Argentum, irtsiad, MutuLI, aserafyn, madman, englsa, ostap5, Форкуш

Джерело: &
Особиста оцінка: 10 - без зайвих вагань рекомендую всім!


Авторський реліз (завантажувати можна без реєстрації)
 Трекер:    Зареєстрований   

Завантажити / скачати фільм українською



відео для новачків



 Зареєстрований:   2020-01-04 17:42
 Розмір:   27.2 GB 
 Оцінка фільму:   9.4/10 (Голосів: 15)
   
Інші релізи
   Ірландець / The Irishman (2019) 720p Ukr/Eng | Sub Eng staf777  31 / 0   5.55 GB   2020-01-05 23:35 
   Ірландець / The Irishman (2019) Ukr/Eng antik_2008  70 / 4   3.84 GB   2020-01-05 00:03 
   Ірландець / The Irishman (2019) 1080p H.265 Ukr/Eng | Sub Eng -Star-Lord-  18 / 1   10.21 GB   2020-01-04 16:03 
   Ірландець / The Irishman (2019) AVC Ukr/Eng | Sub Eng Electroz  148 / 2   4.06 GB   2019-12-29 17:36 
   Ірландець / The Irishman (2019) 1080p Ukr/Eng | Sub Eng Electroz  87 / 0   12.01 GB   2019-12-29 17:30 
alesandroua 
Свій


З нами з: 09.10.16
Востаннє: 26.02.20
Повідомлень: 64

2020-01-08 17:06  
В мене файл не відтворюється...нажаль
2fa131192 
Новенький


З нами з: 20.08.11
Востаннє: 27.02.20
Повідомлень: 1

2020-01-30 18:35  
Не відтворюється відео
Kala4 
Новенький


З нами з: 30.08.11
Востаннє: 10.02.20
Повідомлень: 1

2020-02-01 19:24  
Відео відкривається конусо-плеером без проблем.
Єдине зауваженя до відеодоріжки що була десь здерта з німецькими хардсабами та написами.

Ваш часовий пояс: GMT + 2 Години

Нова тема   Відповісти