Hell:On / Pripjat - A Glimpse Beyond (2019) [] | Thrash / Death Metal

Нові коментарі

Нова тема   Відповісти
Автор Повідомлення
kolpavel 
VIP


З нами з: 04.05.14
Востаннє: 04.03.21
Повідомлень: 1375

2020-01-04 17:14  
Hell:On / Pripjat - A Glimpse Beyond (2019) [] | Thrash / Death Metal

Hell:On / Pripjat - A Glimpse Beyond (2019) [] | Thrash / Death Metal


Стиль: Thrash Death Meta
Країна, місто: Україна, Запоріжжя, Київ / Нiмеччина, Köln.
Сайти: Офіційний сайт
Видавець: The Crawling Chaos Records
Виконавці:

"Hell:On"
Олександр Баєв - вокал
Антон Ворожцов - гітара
Олексій Пасько - гітара
Олександр Сітало - бас-гітара
Олег Таланів - ударні

"Pripjat"
Кирило Громада - вокал, гітари
Євген "Чувак" Любавський - гітари
Пабло Тапія - бас
Yannik 'Bobo' Bremerich - барабани

Пісні:

    1. Pripjat A Glimpse... - 01:16
    2. Pripjat Protect And Secure - 04:07
    3. Pripjat The Sprawl - 04:58
    4. Pripjat Birth Control - 07:47
    5. Pripjat ...Beyond - 06:27
    6. Hell:On Spreading Chaos - 06:03
    7. Hell:On Ashes Of The Gods - 05:42
    8. Hell:On B.S.B. - 04:54
    9. Hell:On Satan (Live) - 07:06

Тривалість: 00:48:25
Мова: англiйська
Аудіо-кодек:
Бітрейт: 975 кб/с
Джерело: трекер
Додаткова інформація:
EAC
Exact Audio Copy V1.3 from 2. September 2016

Отчёт EAC об извлечении, выполненном 19. октября 2019, 14:36

Pripjat-Hell:on / A Glimpse Beyond

Дисковод: ASUS DRW-24F1MT Adapter: 1 ID: 0

Режим чтения : Достоверность
Использование точного потока : Да
Отключение кэша аудио : Да
Использование указателей C2 : Нет

Коррекция смещения при чтении : 6
Способность читать области Lead-in и Lead-out : Нет
Заполнение пропущенных сэмплов тишиной : Да
Удаление блоков с тишиной в начале и конце : Нет
При вычислениях CRC использовались нулевые сэмплы : Да
Интерфейс : Встроенный Win32-интерфейс для Win NT/2000

Выходной формат : Пользовательский кодировщик
Выбранный битрейт : 1024 kBit/s
Качество : Высокий
Добавление ID3-тега : Нет
Утилита сжатия : C:\Program Files (x86)\Exact Audio Copy\\.exe
Дополнительные параметры : -V -8 -T "Date=%year%" -T "Genre=%genre%" %source%

TOC извлечённого CD

Трек | Старт | Длительность | Начальный сектор | Конечный сектор
---------------------------------------------------------------------
1 | 0:00.00 | 1:16.60 | 0 | 5759
2 | 1:16.60 | 4:07.37 | 5760 | 24321
3 | 5:24.22 | 4:58.54 | 24322 | 46725
4 | 10:23.01 | 7:47.64 | 46726 | 81814
5 | 18:10.65 | 6:27.36 | 81815 | 110875
6 | 24:38.26 | 6:03.61 | 110876 | 138161
7 | 30:42.12 | 5:42.21 | 138162 | 163832
8 | 36:24.33 | 4:54.30 | 163833 | 185912
9 | 41:18.63 | 7:06.20 | 185913 | 217882

Характеристики диапазона извлечения и сообщения об ошибках

Выбранный диапазон

Имя файла G:\ВСЕ ЗАГРУЗКИ\sking\Pripjat-Hellon - A Glimpse Beyond (2019)\Pripjat-Hell-on - A Glimpse Beyond.wav

Пиковый уровень 89.1 %
Скорость извлечения 6.8 X
Качество диапазона 100.0 %
CRC теста 7AE4F251
CRC копии 7AE4F251
Копирование... OK

Ошибок не произошло

AccurateRip: сводка

Трек 1 отсутствует в базе данных
Трек 2 отсутствует в базе данных
Трек 3 отсутствует в базе данных
Трек 4 отсутствует в базе данных
Трек 5 отсутствует в базе данных
Трек 6 отсутствует в базе данных
Трек 7 отсутствует в базе данных
Трек 8 отсутствует в базе данных
Трек 9 отсутствует в базе данных

Ни одного трека нет в базе AccurateRip

Конец отчёта

---- CUETools DB Plugin V2.1.6

[CTDB TOCID: Kqy8XGC4PX9hUqjLyHy66g7q0P8-] disk not present in database
Submit result: Kqy8XGC4PX9hUqjLyHy66g7q0P8- has been uploaded

==== Контрольная сумма отчёта 491C54E03C32A60B8C196C19967FDA2D76FFC08EF77B57DE0506341CC9074E5F ====
(.CUE)
REM GENRE "Thrash Metal"
REM DATE 2019
REM DISCID 720B5909
REM COMMENT "ExactAudioCopy v1.3"
PERFORMER "Pripjat-Hell:on"
TITLE "A Glimpse Beyond"
REM COMPOSER ""
FILE "Pripjat-Hell-on - A Glimpse Beyond." WAVE
TRACK 01 AUDIO
TITLE "Pripjat - A Glimpse"
PERFORMER "Pripjat-Hell:on"
REM COMPOSER ""
INDEX 01 00:00:00
TRACK 02 AUDIO
TITLE "Pripjat - Protect And Secure"
PERFORMER "Pripjat-Hell:on"
REM COMPOSER ""
INDEX 01 01:16:60
TRACK 03 AUDIO
TITLE "Pripjat - The Sprawl"
PERFORMER "Pripjat-Hell:on"
REM COMPOSER ""
INDEX 01 05:24:22
TRACK 04 AUDIO
TITLE "Pripjat - Birth Control"
PERFORMER "Pripjat-Hell:on"
REM COMPOSER ""
INDEX 01 10:23:01
TRACK 05 AUDIO
TITLE "Pripjat - Beyond"
PERFORMER "Pripjat-Hell:on"
REM COMPOSER ""
INDEX 01 18:10:65
TRACK 06 AUDIO
TITLE "Hell:on - Spreading Chaos"
PERFORMER "Pripjat-Hell:on"
REM COMPOSER ""
INDEX 01 24:38:26
TRACK 07 AUDIO
TITLE "Hell:on - Ashes of The Gods"
PERFORMER "Pripjat-Hell:on"
REM COMPOSER ""
INDEX 01 30:42:12
TRACK 08 AUDIO
TITLE "Hell:on - B.S.B"
PERFORMER "Pripjat-Hell:on"
REM COMPOSER ""
INDEX 01 36:24:33
TRACK 09 AUDIO
TITLE "Hell:on - Satan"
PERFORMER "Pripjat-Hell:on"
REM COMPOSER ""
INDEX 01 41:18:63


Якщо Ви справді бажаєте підтримати українське - після прослуховування, якщо музика вам сподобалась, придбайте ліцензійний диск. Підтримаймо вітчизняних виконавців!


Срібний реліз (на рейтинг впливає 50% завантаженого)
 Трекер:    Зареєстрований   

Завантажити / скачати українську музику



відео для новачків



 Зареєстрований:   2020-01-04 17:14
 Розмір:   355 MB 
 Оцінка музики:   10/10 (Голосів: 4)
   
Ваш часовий пояс: GMT + 2 Години

Нова тема   Відповісти