Негідники не мріють про шляхетних дівчат / Seishun Buta Yarou wa Yumemiru Shoujo no Yume wo Minai (2019) 1080p Ukr/Jap | Ukr Sub

Нові коментарі

Нова тема   Відповісти
Автор Повідомлення
Noiseless 
Свій


З нами з: 16.06.19
Востаннє: 18.01.20
Повідомлень: 53

2020-01-04 16:36  
Негідники не мріють про шляхетних дівчат / Seishun Buta Yarou wa Yumemiru Shoujo no Yume wo Minai (2019) 1080p Ukr/Jap | Ukr Sub

Негідники не мріють про шляхетних дівчат / Seishun Buta Yarou wa Yumemiru Shoujo no Yume wo Minai (2019) 1080p Ukr/Jap | Ukr Sub


Жанр: комедія, романтика, містика
Країна: Японія



7.44 (153 голосів)

Кінокомпанія: Clover Works
Режисер: Хара Кеїчі
Ролі озвучують: Ішікава Кайто, Сето Асамі, Тояма Нао, Танезакі Ацумі, Учіда Маая

Сюжет:
У Фуджісаві, з чистим яскравим небом і блискучим морем, Азусаґава Сакута навчається на другому році старшої школи. В його щасливі та благословенні дні з коханою дівчиною-старшокласницею Сакураджімою Май вривається його перше кохання, Макінохара Шьоко. З невідомих причин він зіштовхується з двома Шьоко: ученицею середньої школи і дорослою дівчиною.


Тривалість: 1 серія: 01:29:59 (цілком серій: 1)
Якість:
Відео:
кодек:
бітрейт: 5404 кб/с

Аудіо # 1:
мова: українська
переклад: двоголосий закадровий
кодек: 2.0 (24 bit)
бітрейт: ~1304 кб/с

Аудіо # 2:
мова: японська
переклад: оригінал
кодек: 2.0 (24 bit)
бітрейт: ~1153кб/с

Джерело озвучення:


Субтитри:
мова: українська
тип: програмні (м'які)
формат: *.
Info
General
Unique ID : 186608087792816500266638153928871237994 (0x8C636910ECC31E699461009B70CBD96A)
Complete name : R:\Seishun Buta Yarou wa Yumemiru\Seishun_Buta_Yarou_wa_Yumemiru_(BDRip_x264_1080_FLAC)_Ukr_VO_Sub.
Format :
Format version : Version 4
File size : 4.95 GiB
Duration : 1 h 29 min
Overall bit rate mode : Variable
Overall bit rate : 7 883 kb/s
Encoded date : UTC 2019-12-29 18:37:47
Writing application : v7.0.0 ('Where We Going') 32bit built on Jun 9 2014 15:08:34
Writing library : libebml v1.3.0 + v1.4.1
Cover : Yes
Attachments : cover.jpg / QuaySansMdITCTT.ttf / QuaySansMdITCTT_Italic.ttf / akzentrounded-regular.ttf / Brianne_s_hand.ttf / Cabin-Bold.ttf / Cabin-BoldItalic.ttf / Cleric SSi Bold.ttf / Cleric SSi.ttf / EmmettsHand Regular.ttf / Foot Fight.ttf / framd.ttf / Greco SSi Semi Bold Italic.ttf / Greco SSi Semi Bold.ttf / JandaCurlygirlChunky.ttf / Mesouran Casual SSi Semi Bold Italic.ttf / Mesouran Casual SSi Semi Bold.ttf / Omnibus_Bold.ttf / Omnibus_BoldItalic.ttf / Raleigh BT.ttf / RuzickaTypeK.ttf / SWZ721L.ttf / SWZ721M.ttf / TransportNew-Medium.ttf / akzentrounded-bold.ttf / swis721-md-bt-medium.ttf / ARIASCRIPTSSK.TTF / BRUSHSTROKESGRAINY-HEAVY.OTF / eraserdust.ttf / FOT Rodin Pro EB.ttf / FOTGAKUMARUGOTHICPROSTRP-B.OTF / FOTKAFUPENJISTDSTRIPPED-BOLD.OTF / FOTMANYOSOSHOMODSTRP-HEAVY.OTF / FOT-MatissePro-EB.otf / G-OTF-KShinGoStd-Bold.otf / IWAMINPRO-MD-KAMI.TTF / IwaRGoPro-Md-Kami.ttf / KGFeeling22-Regular.ttf / KGLoveSomebody-Regular.ttf / PTS75F.ttf / PTS76F.ttf

Video
ID : 1
Format : AVC
Format/Info : Advanced Video Codec
Format profile : High [email protected]
Format settings : CABAC / 16 Ref Frames
Format settings, CABAC : Yes
Format settings, Reference : 16 frames
Codec ID : V_MPEG4/ISO/AVC
Duration : 1 h 29 min
Bit rate : 5 404 kb/s
Width : 1 920 pixels
Height : 1 080 pixels
Display aspect ratio : 16:9
Frame rate mode : Constant
Frame rate : 23.976 (24000/1001) FPS
Color space : YUV
Chroma subsampling : 4:2:0
Bit depth : 10 bits
Scan type : Progressive
Bits/(Pixel*Frame) : 0.109
Stream size : 3.39 GiB (69%)
Writing library : core 155 r2893 b00bcaf
Encoding settings : cabac=1 / ref=16 / deblock=1:-2:-2 / analyse=0x3:0x133 / me=umh / subme=10 / psy=1 / psy_rd=0.80:0.00 / mixed_ref=1 / me_range=32 / chroma_me=1 / trellis=2 / 8x8dct=1 / cqm=0 / deadzone=21,11 / fast_pskip=0 / chroma_qp_offset=-2 / threads=24 / lookahead_threads=6 / sliced_threads=0 / nr=0 / decimate=0 / interlaced=0 / bluray_compat=0 / constrained_intra=0 / bframes=16 / b_pyramid=2 / b_adapt=2 / b_bias=0 / direct=3 / weightb=1 / open_gop=0 / weightp=2 / keyint=240 / keyint_min=23 / scenecut=40 / intra_refresh=0 / rc_lookahead=48 / rc=crf / mbtree=1 / crf=16.0 / qcomp=0.70 / qpmin=0 / qpmax=81 / qpstep=4 / ip_ratio=1.40 / aq=3:0.90
Language : Japanese
Default : Yes
Forced : Yes
Color range : Limited
Matrix coefficients : BT.709

Audio #1
ID : 2
Format :
Format/Info : Free Lossless Audio Codec
Codec ID : A_FLAC
Duration : 1 h 29 min
Bit rate mode : Variable
Bit rate : 1 304 kb/s
Channel(s) : 2 channels
Channel layout : L R
Sampling rate : 48.0 kHz
Frame rate : 11.719 FPS (4096 SPF)
Bit depth : 24 bits
Compression mode : Lossless
Stream size : 838 MiB (17%)
Title : DVO від Gwean & Maslinka
Writing library : libFLAC 20170101 (UTC 2017-01-01)
Language : Ukrainian
Default : Yes
Forced : Yes

Audio #2
ID : 3
Format :
Format/Info : Free Lossless Audio Codec
Codec ID : A_FLAC
Duration : 1 h 29 min
Bit rate mode : Variable
Bit rate : 1 153 kb/s
Channel(s) : 2 channels
Channel layout : L R
Sampling rate : 48.0 kHz
Frame rate : 11.719 FPS (4096 SPF)
Bit depth : 24 bits
Compression mode : Lossless
Stream size : 741 MiB (15%)
Title : оригінальна доріжка
Writing library : libFLAC 1.3.1 (UTC 2014-11-25)
Language : Japanese
Default : No
Forced : No

Text #1
ID : 4
Format :
Codec ID : S_TEXT/
Codec ID/Info : Advanced Sub Station Alpha
Duration : 1 h 29 min
Bit rate : 57 b/s
Count of elements : 279
Compression mode : Lossless
Stream size : 37.6 KiB (0%)
Title : написи від K0wbassa
Language : Ukrainian
Default : Yes
Forced : Yes

Text #2
ID : 5
Format :
Codec ID : S_TEXT/
Codec ID/Info : Advanced Sub Station Alpha
Duration : 1 h 29 min
Bit rate : 205 b/s
Count of elements : 1599
Compression mode : Lossless
Stream size : 135 KiB (0%)
Title : повні від K0wbassa
Language : Ukrainian
Default : No
Forced : No
Скріншоти







Озвучення: Gwean, Maslinka
Переклад: K0wbassa

Особиста оцінка: 8 - мені сподобалося

Підтримати та подякувати озвучувачам можна ТУТ


 Трекер:    Зареєстрований   

Завантажити / скачати аніме українською



відео для новачків



 Зареєстрований:   2020-01-04 16:36
 Розмір:   4.95 GB 
 Оцінка аніме:   10/10 (Голосів: 2)
   
Ваш часовий пояс: GMT + 2 Години

Нова тема   Відповісти