Негідники не мріють про шляхетних дівчат / Seishun Buta Yarou wa Yumemiru Shoujo no Yume wo Minai (2019) 720p Ukr/Jap | Ukr Sub

Нові коментарі

Нова тема   Відповісти
Автор Повідомлення
Noiseless 
Свій


З нами з: 16.06.19
Востаннє: 18.01.20
Повідомлень: 53

2020-01-04 16:26  
Негідники не мріють про шляхетних дівчат / Seishun Buta Yarou wa Yumemiru Shoujo no Yume wo Minai (2019) 720p Ukr/Jap | Ukr Sub

Негідники не мріють про шляхетних дівчат / Seishun Buta Yarou wa Yumemiru Shoujo no Yume wo Minai (2019) 720p Ukr/Jap | Ukr Sub


Жанр: комедія, романтика, містика
Країна: Японія



7.44 (153 голосів)

Кінокомпанія: Clover Works
Режисер: Хара Кеїчі
Ролі озвучують: Ішікава Кайто, Сето Асамі, Тояма Нао, Танезакі Ацумі, Учіда Маая

Сюжет:
У Фуджісаві, з чистим яскравим небом і блискучим морем, Азусаґава Сакута навчається на другому році старшої школи. В його щасливі та благословенні дні з коханою дівчиною-старшокласницею Сакураджімою Май вривається його перше кохання, Макінохара Шьоко. З невідомих причин він зіштовхується з двома Шьоко: ученицею середньої школи і дорослою дівчиною.


Тривалість: 1 серія: 01:29:59 (цілком серій: 1)
Якість:
Відео:
кодек: H.265 (HEVC)
розмір кадру: 1280 х 720
бітрейт: 1408 кб/с

Аудіо # 1:
мова: українська
переклад: двоголосий закадровий
кодек: 2.0
бітрейт: 192 кб/с

Аудіо # 2:
мова: японська
переклад: оригінал
кодек: 2.0
бітрейт: 117 кб/с

Джерело озвучення:


Субтитри:
мова: українська
тип: програмні (м'які)
формат: *.
Info
General
Unique ID : 247758234631130276093331695850988464427 (0xBA648013F40318B187F7CB2C6977692B)
Complete name : R:\Seishun Buta Yarou wa Yumemiru\Seishun_Buta_Yarou_wa_Yumemiru_(BDRip_x265_720_AAC)_Ukr_VO_Sub.
Format :
Format version : Version 4
File size : 1.08 GiB
Duration : 1 h 29 min
Overall bit rate : 1 723 kb/s
Encoded date : UTC 2019-12-29 17:02:41
Writing application : v7.0.0 ('Where We Going') 32bit built on Jun 9 2014 15:08:34
Writing library : libebml v1.3.0 + v1.4.1
Cover : Yes
Attachments : cover.jpg / QuaySansMdITCTT.ttf / QuaySansMdITCTT_Italic.ttf / akzentrounded-regular.ttf / Brianne_s_hand.ttf / Cabin-Bold.ttf / Cabin-BoldItalic.ttf / Cleric SSi Bold.ttf / Cleric SSi.ttf / EmmettsHand Regular.ttf / Foot Fight.ttf / framd.ttf / Greco SSi Semi Bold Italic.ttf / Greco SSi Semi Bold.ttf / JandaCurlygirlChunky.ttf / Mesouran Casual SSi Semi Bold Italic.ttf / Mesouran Casual SSi Semi Bold.ttf / Omnibus_Bold.ttf / Omnibus_BoldItalic.ttf / Raleigh BT.ttf / RuzickaTypeK.ttf / SWZ721L.ttf / SWZ721M.ttf / TransportNew-Medium.ttf / akzentrounded-bold.ttf

Video
ID : 1
Format : HEVC
Format/Info : High Efficiency Video Coding
Format profile : Main [email protected]@Main
Codec ID : V_MPEGH/ISO/HEVC
Duration : 1 h 29 min
Bit rate : 1 408 kb/s
Width : 1 920 pixels
Height : 1 080 pixels
Display aspect ratio : 16:9
Frame rate mode : Constant
Frame rate : 23.976 (24000/1001) FPS
Color space : YUV
Chroma subsampling : 4:2:0
Bit depth : 10 bits
Bits/(Pixel*Frame) : 0.028
Stream size : 906 MiB (82%)
Writing library : x265 3.2+6-7fa570ead8d3:[Windows][GCC 9.2.0][64 bit] 10bit
Encoding settings : cpuid=1111039 / frame-threads=3 / numa-pools=8 / wpp / no-pmode / no-pme / no-psnr / no-ssim / log-level=2 / input-csp=1 / input-res=1920x1080 / interlace=0 / total-frames=129432 / level-idc=0 / high-tier=1 / uhd-bd=0 / ref=3 / no-allow-non-conformance / no-repeat-headers / annexb / no-aud / no-hrd / info / hash=0 / no-temporal-layers / open-gop / min-keyint=23 / keyint=250 / gop-lookahead=0 / bframes=4 / b-adapt=2 / b-pyramid / bframe-bias=0 / rc-lookahead=20 / lookahead-slices=6 / scenecut=40 / radl=0 / no-splice / no-intra-refresh / ctu=64 / min-cu-size=8 / no-rect / no-amp / max-tu-size=32 / tu-inter-depth=1 / tu-intra-depth=1 / limit-tu=0 / rdoq-level=0 / dynamic-rd=0.00 / no-ssim-rd / signhide / no-tskip / nr-intra=0 / nr-inter=0 / no-constrained-intra / strong-intra-smoothing / max-merge=3 / limit-refs=1 / no-limit-modes / me=1 / subme=2 / merange=57 / temporal-mvp / no-hme / weightp / no-weightb / no-analyze-src-pics / deblock=0:0 / sao / no-sao-non-deblock / rd=3 / selective-sao=4 / early-skip / rskip / no-fast-intra / no-tskip-fast / no-cu-lossless / b-intra / no-splitrd-skip / rdpenalty=0 / psy-rd=2.00 / psy-rdoq=0.00 / no-rd-refine / no-lossless / cbqpoffs=0 / crqpoffs=0 / rc=crf / crf=18.0 / qcomp=0.60 / qpstep=4 / stats-write=0 / stats-read=0 / ipratio=1.40 / pbratio=1.30 / aq-mode=2 / aq-strength=1.00 / cutree / zone-count=0 / no-strict-cbr / qg-size=32 / no-rc-grain / qpmax=69 / qpmin=0 / no-const-vbv / sar=1 / overscan=0 / videoformat=5 / range=0 / colorprim=2 / transfer=2 / colormatrix=2 / chromaloc=0 / display-window=0 / cll=0,0 / min-luma=0 / max-luma=1023 / log2-max-poc-lsb=8 / vui-timing-info / vui-hrd-info / slices=1 / no-opt-qp-pps / no-opt-ref-list-length-pps / no-multi-pass-opt-rps / scenecut-bias=0.05 / no-opt-cu-delta-qp / no-aq-motion / no-hdr / no-hdr-opt / no-dhdr10-opt / no-idr-recovery-sei / analysis-reuse-level=5 / scale-factor=0 / refine-intra=0 / refine-inter=0 / refine-mv=1 / refine-ctu-distortion=0 / no-limit-sao / ctu-info=0 / no-lowpass-dct / refine-analysis-type=0 / copy-pic=1 / max-ausize-factor=1.0 / no-dynamic-refine / no-single-sei / no-hevc-aq / no-svt / no-field / qp-adaptation-range=1.00
Language : Japanese
Default : Yes
Forced : Yes

Audio #1
ID : 2
Format : LC
Format/Info : Advanced Audio Codec Low Complexity
Codec ID : A_AAC-2
Duration : 1 h 29 min
Bit rate : 192 kb/s
Channel(s) : 2 channels
Channel layout : L R
Sampling rate : 48.0 kHz
Frame rate : 46.875 FPS (1024 SPF)
Compression mode : Lossy
Stream size : 124 MiB (11%)
Title : DVO від Gwean & Maslinka
Language : Ukrainian
Default : Yes
Forced : Yes

Audio #2
ID : 3
Format : LC
Format/Info : Advanced Audio Codec Low Complexity
Codec ID : A_AAC-2
Duration : 1 h 29 min
Bit rate : 117 kb/s
Channel(s) : 2 channels
Channel layout : L R
Sampling rate : 48.0 kHz
Frame rate : 46.875 FPS (1024 SPF)
Compression mode : Lossy
Delay relative to video : 9 ms
Stream size : 75.2 MiB (7%)
Title : оригінальна доріжка
Language : Japanese
Default : No
Forced : No

Text #1
ID : 4
Format :
Codec ID : S_TEXT/
Codec ID/Info : Advanced Sub Station Alpha
Duration : 1 h 29 min
Bit rate : 57 b/s
Count of elements : 279
Compression mode : Lossless
Stream size : 37.6 KiB (0%)
Title : написи від K0wbassa
Language : Ukrainian
Default : Yes
Forced : Yes

Text #2
ID : 5
Format :
Codec ID : S_TEXT/
Codec ID/Info : Advanced Sub Station Alpha
Duration : 1 h 29 min
Bit rate : 205 b/s
Count of elements : 1599
Compression mode : Lossless
Stream size : 135 KiB (0%)
Title : повні від K0wbassa
Language : Ukrainian
Default : No
Forced : No

Menu
00:00:00.000 : en:Chapter 01
00:15:16.081 : en:Chapter 02
00:22:04.781 : en:Chapter 03
00:30:47.887 : en:Chapter 04
00:46:39.963 : en:Chapter 05
00:55:53.892 : en:Chapter 06
01:08:17.760 : en:Chapter 07
01:21:48.069 : en:Chapter 08
01:25:57.152 : en:Chapter 09
Скріншоти




Озвучення: Gwean, Maslinka
Переклад: K0wbassa

Особиста оцінка: 8 - мені сподобалося

Підтримати та подякувати озвучувачам можна ТУТ


 Трекер:    Зареєстрований   

Завантажити / скачати аніме українською



відео для новачків



 Зареєстрований:   2020-01-04 16:26
 Розмір:   1.08 GB 
 Оцінка аніме:   10/10 (Голосів: 6)
   
bebebebebebebe 
Свій


З нами з: 22.01.18
Востаннє: 18.01.20
Повідомлень: 137

2020-01-05 02:03  
Чудовий фільм. Передивився вже двічі його.
WXevaovm 
Новенький


З нами з: 11.02.17
Востаннє: 18.01.20
Повідомлень: 19

2020-01-15 23:54  
Гідне продовження чудового серіалу.

Про суть проблеми і очевидне вирішення здогадався майже відразу, але автори порадували, запропонували інший розв'язок, а потім ще один.

Ваш часовий пояс: GMT + 2 Години

Нова тема   Відповісти