Ірландець / The Irishman (2019) 1080p H.265 Ukr/Eng | Sub Eng

Нові коментарі

Нова тема   Відповісти
Автор Повідомлення
Anonymous 







2020-01-04 17:03  
Ірландець / The Irishman (2019) 1080p H.265 Ukr/Eng | Sub Eng

Ірландець / The Irishman (2019) 1080p H.265 Ukr/Eng | Sub Eng


Жанр: біографія, кримінальний, драма
Країна: США
Кінокомпанія: Fábrica de Cine, STX Entertainment, Sikelia Productions
Режисер: Мартін Скорсезе
Актори: Роберт де Ніро, Аль Пачіно, Джо Пеші, Анна Паквін, Джессі Племонс, Стівен Ґрем, Боббі Каннавале, Гарві Кейтель, Кетрін Нардуччі, Джек Г'юстон та інші

Сюжет:
Історія про Френка Ширена на прізвисько Ірландець, якому приписують вбивство 25 гангстерів, включаючи самого Джиммі Гоффу.

Тривалість: 03:29:26
Якість:

Відео:
кодек: H.265 (HEVC)
розмір кадру: 1920 x 1080
бітрейт: 5 570 кб/с
бітова глибина: 10 біт

Увага! Перед завантаженням переконайтесь, що ваш пристрій відтворення (та/або ПЗ) підтримує H.265 (HEVC)

Аудіо # 1:
мова: українська
переклад: багатоголосий закадровий | DniproFilm
кодек: AC-3 5.1
бітрейт: 640 кб/с

Аудіо # 2:
мова: англійська
переклад: оригінал
кодек: E-AC-3 5.1
бітрейт: 768 кб/с

Субтитри # 1-2: (Forced, Full)
мова: англійська
тип: програмні (м'які)
формат: *.srt


Info
Код:
General
Unique ID                                : 166481525903100506592708326369757123099 (0x7D3F2CF39FB96BC16B79F2DA31EA521B)
Complete name                            : The Irishman (2019) 1080p H.265 [UKR_ENG] [Hurtom].
Format                                   :
Format version                           : Version 4
File size                                : 10.2 GiB
Duration                                 : 3 h 29 min
Overall bit rate                         : 6 981 kb/s
Movie name                               : Ірландець / The Irishman (2019)
Encoded date                             : UTC 2020-01-04 13:02:08
Writing application                      : v20.0.0 ('I Am The Sun') 64-bit
Writing library                          : libebml v1.3.5 + v1.4.8
Cover                                    : Yes
Attachments                              : cover.jpg

Video
ID                                       : 1
Format                                   : HEVC
Format/Info                              : High Efficiency Video Coding
Format profile                           : Main [email protected]@Main
Codec ID                                 : V_MPEGH/ISO/HEVC
Duration                                 : 3 h 29 min
Bit rate                                 : 5 570 kb/s
Width                                    : 1 920 pixels
Height                                   : 1 080 pixels
Display aspect ratio                     : 16:9
Frame rate mode                          : Constant
Frame rate                               : 24.000 FPS
Color space                              : YUV
Chroma subsampling                       : 4:2:0
Bit depth                                : 10 bits
Bits/(Pixel*Frame)                       : 0.112
Stream size                              : 8.15 GiB (80%)
Title                                    : Ірландець / The Irishman (2019)
Language                                 : English
Default                                  : Yes
Forced                                   : No
Color range                              : Limited
Color primaries                          : BT.709
Transfer characteristics                 : BT.709
Matrix coefficients                      : BT.709

Audio #1
ID                                       : 2
Format                                   : AC-3
Format/Info                              : Audio Coding 3
Commercial name                          : Dolby Digital
Codec ID                                 : A_AC3
Duration                                 : 3 h 29 min
Bit rate mode                            : Constant
Bit rate                                 : 640 kb/s
Channel(s)                               : 6 channels
Channel layout                           : L R C LFE Ls Rs
Sampling rate                            : 48.0 kHz
Frame rate                               : 31.250 FPS (1536 SPF)
Bit depth                                : 16 bits
Compression mode                         : Lossy
Stream size                              : 959 MiB (9%)
Title                                    : / 5.1 Ch / 640 kbps / БЗ / DniproFilm
Language                                 : Ukrainian
Service kind                             : Complete Main
Default                                  : Yes
Forced                                   : Yes

Audio #2
ID                                       : 3
Format                                   : E-AC-3 JOC
Format/Info                              : Enhanced AC-3 with Joint Object Coding
Commercial name                          : Dolby Digital Plus with Dolby Atmos
Codec ID                                 : A_EAC3
Duration                                 : 3 h 29 min
Bit rate mode                            : Constant
Bit rate                                 : 768 kb/s
Channel(s)                               : 6 channels
Channel layout                           : L R C LFE Ls Rs
Sampling rate                            : 48.0 kHz
Frame rate                               : 31.250 FPS (1536 SPF)
Compression mode                         : Lossy
Stream size                              : 1.12 GiB (11%)
Title                                    : E- / 5.1 Ch / 768 kbps / Original
Language                                 : English
Service kind                             : Complete Main
Default                                  : No
Forced                                   : No
Complexity index                         : 16
Number of dynamic objects                : 15
Bed channel count                        : 1 channel
Bed channel configuration                : LFE

Text #1
ID                                       : 4
Format                                   : UTF-8
Codec ID                                 : S_TEXT/UTF8
Codec ID/Info                            : UTF-8 Plain Text
Duration                                 : 57 s 292 ms
Bit rate                                 : 47 b/s
Count of elements                        : 17
Stream size                              : 343 Bytes (0%)
Title                                    : Forced
Language                                 : English
Default                                  : No
Forced                                   : No

Text #2
ID                                       : 5
Format                                   : UTF-8
Codec ID                                 : S_TEXT/UTF8
Codec ID/Info                            : UTF-8 Plain Text
Duration                                 : 3 h 16 min
Bit rate                                 : 69 b/s
Count of elements                        : 2927
Stream size                              : 101 KiB (0%)
Title                                    : Full
Language                                 : English
Default                                  : No
Forced                                   : No
Світлини




Подяка користувачам, що фінансово допомогли озвученню:
Korleone, Tarasyk, NemoInFire, N.W.A, NeetScrool, havryk, mrgalser, gudyma_s, Argentum, irtsiad, MutuLI, aserafyn, madman, englsa, ostap5, Форкуш

Джерело: &
Особиста оцінка: 10 - без зайвих вагань рекомендую всім!


Авторський реліз (завантажувати можна без реєстрації)
 Трекер:    Зареєстрований   

Завантажити / скачати фільм українською



відео для новачків



 Зареєстрований:   2020-01-04 17:03
 Розмір:   10.21 GB 
 Оцінка фільму:   9.2/10 (Голосів: 21)
   
Інші релізи
   Ірландець / The Irishman (2019) 720p Ukr/Eng | Sub Eng staf777  64 / 0   5.55 GB   2020-01-06 00:35 
   Ірландець / The Irishman (2019) Ukr/Eng antik_2008  98 / 0   3.84 GB   2020-01-05 01:03 
   Ірландець / The Irishman (2019) UHD 2160p HDR H.265 Ukr/Eng | Sub Eng -Star-Lord-  19 / 0   27.2 GB   2020-01-04 18:42 
   Ірландець / The Irishman (2019) AVC Ukr/Eng | Sub Eng Electroz  170 / 0   4.06 GB   2019-12-29 18:36 
   Ірландець / The Irishman (2019) 1080p Ukr/Eng | Sub Eng Electroz  108 / 1   12.01 GB   2019-12-29 18:30 
alexcaptain 
Свій


З нами з: 20.03.14
Востаннє: 02.05.20
Повідомлень: 114

2020-01-05 15:58  
Dnipro film ? Ні дякую, але дякую
Anonymous 







2020-01-05 16:14  
alexcaptain
А що не так? Здається круто переклали та озвучили!

kasiaprada 
Новенький


З нами з: 28.01.09
Востаннє: 23.05.20
Повідомлень: 4

2020-04-26 04:51  
O_omarella! 
Поважний учасник


З нами з: 14.06.13
Востаннє: 27.05.20
Повідомлень: 191

2020-05-22 21:37  
Починав дивитись фільм раз ів 5-6, потім засинав...Не скажу що кіно погане, але чесно кажучи звідки такий рейтинг не розумію:-/
kasiaprada 
Новенький


З нами з: 28.01.09
Востаннє: 23.05.20
Повідомлень: 4

2020-05-23 02:44  
@O_omarella!
для того аби зрозуміти цей фільм треба читати багато історії, зрозуміти феномен мафії, тоді біографія кожного персонажа буде для Вас цікавою.

раджу подивитись "Донні Браско"
https://youtu.be/LsvoUm1kqgE
а потім послухати інтерв'ю справжнього Донні Браскo - агента FBI Джо Пістоне
https://youtu.be/-TsB-odZTbU

Приємного перегляду!

Ваш часовий пояс: GMT + 2 Години

Нова тема   Відповісти