Ананд / Anand / आनन्द (फ़िल्म) (1971) 720p Ukr/Hin | Sub Eng

Нові коментарі

Нова тема   Відповісти
Автор Повідомлення
Anonymous 







2020-01-04 13:29  
Ананд / Anand / आनन्द (फ़िल्म) (1971) 720p Ukr/Hin | Sub Eng

Ананд / Anand / आनन्द (फ़िल्म) (1971) 720p Ukr/Hin | Sub Eng


Жанр: драма, музичний.
Країна: Індія



Кінокомпанія: Rupam Chitra
Режисер: Хрішікеш Мукерджі
Актори: Раджеш Ханна, Амітаб Баччан, Рамеш Део, Лаліта Павар, Суміта Санял.

Сюжет:
Історія про невиліковно хвору людину, яка бажає прожити життя повною мірою до того, як відбудеться неминуче.


Тривалість: 02:02:08
Якість:
Відео:
кодек:
розмір кадру: 944 х 720
бітрейт: 2536 кб/с

Аудіо # 1:
мова: українська
переклад: багатоголосий закадровий | KIT
кодек: 2.0
бітрейт: 192 кб/с

Аудіо # 2:
мова: гінді
переклад: оригінал
кодек: 2.0
бітрейт: 448 кб/с

Субтитри:
мова: англійська
тип: програмні (м'які)
формат: *.srt
Info

Video
ID : 1
Format : AVC
Format/Info : Advanced Video Codec
Format profile : [email protected]
Format settings : CABAC / 8 Ref Frames
Format settings, CABAC : Yes
Format settings, Reference fra : 8 frames
Codec ID : V_MPEG4/ISO/AVC
Duration : 2 h 2 min
Bit rate : 2 536 kb/s
Width : 944 pixels
Height : 720 pixels
Display aspect ratio : 4:3
Frame rate mode : Constant
Frame rate : 24.000 FPS
Color space : YUV
Chroma subsampling : 4:2:0
Bit depth : 8 bits
Scan type : Progressive
Bits/(Pixel*Frame) : 0.155
Stream size : 2.16 GiB (80%)
Writing library : core 157 r2935 545de2f
Encoding settings : cabac=1 / ref=8 / deblock=1:-1:-1 / analyse=0x3:0x133 / me=umh / subme=10 / psy=1 / psy_rd=1.00:0.15 / mixed_ref=1 / me_range=32 / chroma_me=1 / trellis=2 / 8x8dct=1 / cqm=0 / deadzone=21,11 / fast_pskip=0 / chroma_qp_offset=-3 / threads=6 / lookahead_threads=1 / sliced_threads=0 / nr=0 / decimate=1 / interlaced=0 / bluray_compat=0 / constrained_intra=0 / bframes=3 / b_pyramid=2 / b_adapt=2 / b_bias=0 / direct=3 / weightb=1 / open_gop=0 / weightp=2 / keyint=240 / keyint_min=24 / scenecut=40 / intra_refresh=0 / rc_lookahead=40 / rc=crf / mbtree=1 / crf=19.0 / qcomp=0.60 / qpmin=0 / qpmax=69 / qpstep=4 / vbv_maxrate=31250 / vbv_bufsize=31250 / crf_max=0.0 / nal_hrd=none / filler=0 / ip_ratio=1.40 / aq=1:1.00
Language : Hindi
Default : Yes
Forced : No

Audio #1
ID : 2
Format : AC-3
Format/Info : Audio Coding 3
Commercial name : Dolby Digital
Codec ID : A_AC3
Duration : 2 h 2 min
Bit rate mode : Constant
Bit rate : 192 kb/s
Channel(s) : 2 channels
Channel layout : L R
Sampling rate : 48.0 kHz
Frame rate : 31.250 FPS (1536 SPF)
Compression mode : Lossy
Stream size : 168 MiB (6%)
Title : MVO - KIT
Language : Ukrainian
Service kind : Complete Main
Default : Yes
Forced : No

Audio #2
ID : 3
Format : AC-3
Format/Info : Audio Coding 3
Commercial name : Dolby Digital
Codec ID : A_AC3
Duration : 2 h 2 min
Bit rate mode : Constant
Bit rate : 448 kb/s
Channel(s) : 2 channels
Channel layout : L R
Sampling rate : 48.0 kHz
Frame rate : 31.250 FPS (1536 SPF)
Compression mode : Lossy
Stream size : 391 MiB (14%)
Language : Hindi
Service kind : Complete Main
Default : No
Forced : No

Text
ID : 4
Format : UTF-8
Codec ID : S_TEXT/UTF8
Codec ID/Info : UTF-8 Plain Text
Duration : 1 h 57 min
Bit rate : 67 b/s
Count of elements : 1576
Stream size : 58.1 KiB (0%)
Language : English
Default : No
Forced : No

Menu
00:00:00.000 : en:Chapter 1
00:03:29.375 : en:Chapter 2
00:07:11.833 : en:Chapter 3
00:13:13.416 : en:Chapter 4
00:18:22.291 : en:Chapter 5
00:26:27.000 : en:Chapter 6
00:32:26.791 : en:Chapter 7
00:35:54.541 : en:Chapter 8
00:47:09.000 : en:Chapter 9
00:52:53.666 : en:Chapter 10
00:59:05.541 : en:Chapter 11
01:08:20.166 : en:Chapter 12
01:12:15.416 : en:Chapter 13
01:21:29.541 : en:Chapter 14
01:26:59.416 : en:Chapter 15
01:33:57.541 : en:Chapter 16
01:37:22.916 : en:Chapter 17
01:46:48.250 : en:Chapter 18
01:52:31.541 : en:Chapter 19
01:56:47.958 : en:Chapter 20
Скріншоти













Джерело:
Особиста оцінка: 8 - мені сподобалося


Срібний реліз (на рейтинг впливає 50% завантаженого)
 Трекер:    Зареєстрований   

Завантажити / скачати фільм українською



відео для новачків



 Зареєстрований:   2020-01-04 13:29
 Розмір:   2.71 GB 
 Оцінка фільму:   10/10 (Голосів: 3)
   
Ваш часовий пояс: GMT + 2 Години

Нова тема   Відповісти