Чаклунка: Повелителька темряви / Maleficent: Mistress of Evil (2019) Remux 1080p Ukr/Eng | Sub Eng

Нові коментарі

Нова тема   Відповісти
Автор Повідомлення
Anonymous 







2020-01-03 23:33  
Чаклунка: Повелителька темряви / Maleficent: Mistress of Evil (2019) Remux 1080p Ukr/Eng | Sub Eng


Альтернативні постери




Жанр: пригоди, сімейний, фентезі
Країна: США, Велика Британія





Кінокомпанія: Roth Films, Walt Disney Pictures
Режисер: Хоакім Роннінг
Актори: Анджеліна Джолі, Ель Фаннінг, Гарріс Дікінсон, Мішель Пфайффер, Сем Райлі, Чіветел Еджиофор, Ед Скрейн, Роберт Ліндсей, Девід Гайасі

Сюжет:
Приголомшлива фентезі-історія продовжиться! Після того як Чаклунка наклала закляття на королеву Аврору, життя магічного лісу та його фантастичних мешканців змінилося назавжди. Щоб вистояти у боротьбі проти темряви, молода правителька повинна знайти могутніх союзників - інакше її світ зникне.


Тривалість: 01:58:50
Якість: Remux 1080p

Відео:
кодек:
розмір кадру: 1920x1080
бітрейт: 32,6 Мб/с

Аудіо # 1:
мова: українська
переклад: професійний дубльований
кодек: 2.0
бітрейт: 192 кб/с

Аудіо # 2:
мова: англійська
переклад: оригінал
кодек: 5.1
бітрейт: 448 кб/с

Аудіо # 3:
мова: англійська
переклад: оригінал
кодек: -HD MA 7.1
бітрейт: 5249 кб/с

Субтитри: (Full, SDH)
мова: англійська
тип: програмні (м'які)
формат: *.srt
Info
Код:
General
Complete name                            : \Maleficent Mistress of Evil (2019) Remux 1080p [Ukr_Eng] [Video_Hurtom].
Format                                   :
Format version                           : Version 4
File size                                : 32.0 GiB
Duration                                 : 1 h 58 min
Overall bit rate mode                    : Variable
Overall bit rate                         : 38.5 Mb/s
Encoded date                             : UTC 2020-01-15 16:56:47
Writing application                      : v30.1.0 ('Forever And More') 64-bit
Writing library                          : libebml v1.3.6 + v1.4.9
Cover                                    : Yes
Attachments                              : cover.jpg

Video
ID                                       : 1
Format                                   : AVC
Format/Info                              : Advanced Video Codec
Format profile                           : [email protected]
Format settings                          : CABAC / 4 Ref Frames
Format settings, CABAC                   : Yes
Format settings, RefFrames               : 4 frames
Codec ID                                 : V_MPEG4/ISO/AVC
Duration                                 : 1 h 58 min
Bit rate mode                            : Variable
Bit rate                                 : 32.6 Mb/s
Maximum bit rate                         : 35.0 Mb/s
Width                                    : 1 920 pixels
Height                                   : 1 080 pixels
Display aspect ratio                     : 16:9
Frame rate mode                          : Constant
Frame rate                               : 23.976 (24000/1001) FPS
Color space                              : YUV
Chroma subsampling                       : 4:2:0
Bit depth                                : 8 bits
Scan type                                : Progressive
Bits/(Pixel*Frame)                       : 0.657
Stream size                              : 27.1 GiB (85%)
Language                                 : English
Default                                  : Yes
Forced                                   : No

Audio #1
ID                                       : 2
Format                                   : AC-3
Format/Info                              : Audio Coding 3
Commercial name                          : Dolby Digital
Codec ID                                 : A_AC3
Duration                                 : 1 h 58 min
Bit rate mode                            : Constant
Bit rate                                 : 192 kb/s
Channel(s)                               : 2 channels
Channel layout                           : L R
Sampling rate                            : 48.0 kHz
Frame rate                               : 31.250 FPS (1536 SPF)
Bit depth                                : 16 bits
Compression mode                         : Lossy
Stream size                              : 163 MiB (0%)
Title                                    : , 2.0, 192 Kbps
Language                                 : Ukrainian
Service kind                             : Complete Main
Default                                  : Yes
Forced                                   : No

Audio #2
ID                                       : 3
Format                                   : AC-3
Format/Info                              : Audio Coding 3
Commercial name                          : Dolby Digital
Codec ID                                 : A_AC3
Duration                                 : 1 h 58 min
Bit rate mode                            : Constant
Bit rate                                 : 448 kb/s
Channel(s)                               : 6 channels
Channel layout                           : L R C LFE Ls Rs
Sampling rate                            : 48.0 kHz
Frame rate                               : 31.250 FPS (1536 SPF)
Bit depth                                : 16 bits
Compression mode                         : Lossy
Stream size                              : 381 MiB (1%)
Title                                    : , 5.1, 448 Kbps
Language                                 : English
Service kind                             : Complete Main
Default                                  : No
Forced                                   : No

Audio #3
ID                                       : 4
Format                                   : XLL
Format/Info                              : Digital Theater Systems
Commercial name                          : -HD Master Audio
Codec ID                                 : A_DTS
Duration                                 : 1 h 58 min
Bit rate mode                            : Variable
Bit rate                                 : 5 249 kb/s
Channel(s)                               : 8 channels
Channel layout                           : C L R LFE Lb Rb Lss Rss
Sampling rate                            : 48.0 kHz
Frame rate                               : 93.750 FPS (512 SPF)
Bit depth                                : 24 bits
Compression mode                         : Lossless
Stream size                              : 4.36 GiB (14%)
Title                                    : -HD MA, 7.1, 5249 Kbps
Language                                 : English
Default                                  : No
Forced                                   : No

Text #1
ID                                       : 5
Format                                   : UTF-8
Codec ID                                 : S_TEXT/UTF8
Codec ID/Info                            : UTF-8 Plain Text
Duration                                 : 1 h 49 min
Bit rate                                 : 31 b/s
Count of elements                        : 1021
Stream size                              : 25.5 KiB (0%)
Title                                    : Full
Language                                 : English
Default                                  : No
Forced                                   : No

Text #2
ID                                       : 6
Format                                   : UTF-8
Codec ID                                 : S_TEXT/UTF8
Codec ID/Info                            : UTF-8 Plain Text
Duration                                 : 1 h 53 min
Bit rate                                 : 44 b/s
Count of elements                        : 1604
Stream size                              : 36.8 KiB (0%)
Title                                    : SDH
Language                                 : English
Default                                  : Yes
Forced                                   : No

Menu
00:00:00.000                             : en:Chapter 01
00:06:47.907                             : en:Chapter 02
00:09:11.676                             : en:Chapter 03
00:14:45.551                             : en:Chapter 04
00:19:27.833                             : en:Chapter 05
00:23:10.556                             : en:Chapter 06
00:33:51.905                             : en:Chapter 07
00:39:10.265                             : en:Chapter 08
00:42:19.579                             : en:Chapter 09
00:48:31.992                             : en:Chapter 10
00:52:44.745                             : en:Chapter 11
00:57:15.140                             : en:Chapter 12
00:59:26.146                             : en:Chapter 13
01:05:47.569                             : en:Chapter 14
01:09:31.751                             : en:Chapter 15
01:19:07.242                             : en:Chapter 16
01:22:48.547                             : en:Chapter 17
01:29:09.219                             : en:Chapter 18
01:35:00.653                             : en:Chapter 19
01:44:26.510                             : en:Chapter 20
01:51:06.994                             : en:Chapter 21
Скріншоти


Джерело:
Особиста оцінка: 0 - не дивився


Золотий реліз (завантажене не впливає на рейтинг)
 Трекер:    Зареєстрований   

Завантажити / скачати фільм українською



відео для новачків



 Зареєстрований:   2020-01-15 21:24
 Розмір:   31.99 GB 
 Оцінка фільму:   8.9/10 (Голосів: 18)
   
staf777 
Відео Гуртом - підтримка та поширення
Відео Гуртом - підтримка та поширення


З нами з: 16.11.16
Востаннє: 29.01.20
Повідомлень: 3391

2020-01-04 10:53  
Коли чекати на ремукс
sa44ik 
Новенький


З нами з: 13.09.13
Востаннє: 28.01.20
Повідомлень: 7

2020-01-04 11:28  
Підскажіть коли чекати реліз?
Kamper 
Свій


З нами з: 21.01.13
Востаннє: 28.01.20
Повідомлень: 79

2020-01-04 17:13  
sa44ik
у кацапів вже роздається

staf777 
Відео Гуртом - підтримка та поширення
Відео Гуртом - підтримка та поширення


З нами з: 16.11.16
Востаннє: 29.01.20
Повідомлень: 3391

2020-01-08 15:57  
З вітки такий рейтинг - кіно провал повний
Anonymous 







2020-01-15 13:23  
staf777 написано:
Коли чекати на ремукс

Сьогодні

bot 
робот


З нами з: 30.09.07
Востаннє: 26.05.05
Повідомлень: 23109

2020-01-15 21:24  
Тему перенесено з Анонси релізів до форуму Фільми в HD


antik_2008

І-р 
Свій


З нами з: 21.07.16
Востаннє: 29.01.20
Повідомлень: 69

2020-01-16 00:31  
staf777 написано:
З вітки

Rolleyes (4)

Soncezahyst 
Частий відвідувач


З нами з: 12.05.19
Востаннє: 29.01.20
Повідомлень: 42

2020-01-26 14:11  
Добрий сіквел!
Ваш часовий пояс: GMT + 2 Години

Нова тема   Відповісти