Кур'єр / The Courier (2019) 1080p Ukr/Eng | Sub Eng

Нові коментарі

Нова тема   Відповісти
Автор Повідомлення
Anonymous 







2020-01-04 00:07  
Кур'єр / The Courier (2019) 1080p Ukr/Eng | Sub Eng


«Не стій у неї на шляху»



Жанр: бойовик, драма, трилер
Країна: Велика Британія, США



Кінокомпанія: Rollercoaster Angel Productions, Signature Films
Режисер: Закарі Адлер
Актори: Ольга Куриленко, Ґері Олдмен, Аміт Шах, Грег Орвіс, Крейг Конуей, Вільям Моуслі, Дермот Малруні, Гордон Олександр

Сюжет:
На перший погляд вона – лише звичайний кур'єр на чорному мотоциклі, що стрімко мчить нічним містом. Але навіть у величезному мегаполісі їй вдається вислизнути з-під всевидячого ока вуличних камер спостережень, а її ім’я неможливо знайти в жодній базі даних. Саме вона, невловима та небезпечна, може кинути виклик кримінальному босу. Час розплати вже настав!


Тривалість: 01:39:34
Якість: 1080p

Відео:
кодек:
розмір кадру: 1920x802
бітрейт: 10000 кб/с

Аудіо # 1:
мова: українська
переклад: професійний дубльований | студія ААА-sound
кодек: 5.1
бітрейт: 384 кб/с
Інформація про дубляж
Перекладач: Віталій Жук
Редактор: Юлія Когут
Режисер дубляжу та звукорежисер перезапису: Олександр Єфімов
Ролі дублювали: Юлія Перенчук, Дмитро Завадський, Павло Скороходько, Михайло Кришталь, Андрій Федінчик, Катерина Буцька, Юрій Ребрик, Антоніна Хижняк, Ярослав Чорненький, Володимир Терещук, Євген Сардаров та інші.

Фільм дубльовано студією ААА-sound у 2019 році на замовлення компанії "Вольга Україна".
Аудіо # 2:
мова: українська
переклад: професійний дубльований | студія ААА-sound
кодек: 2.0
бітрейт: 192 кб/с

Аудіо # 3:
мова: англійська
переклад: оригінал
кодек: 5.1
бітрейт: 640 кб/с

Субтитри:
мова: англійська
тип: програмні (м'які)
формат: *.srt
Info
Код:
General
Complete name                            : The Courier (2019) 1080p [Ukr_Eng] [Video_Hurtom].
Format                                   :
Format version                           : Version 4
File size                                : 7.80 GiB
Duration                                 : 1 h 39 min
Overall bit rate                         : 11.2 Mb/s
Encoded date                             : UTC 2020-02-07 20:19:43
Writing application                      : v30.1.0 ('Forever And More') 64-bit
Writing library                          : libebml v1.3.6 + v1.4.9
Cover                                    : Yes
Attachments                              : cover.jpg

Video
ID                                       : 1
Format                                   : AVC
Format/Info                              : Advanced Video Codec
Format profile                           : [email protected]
Format settings                          : CABAC / 5 Ref Frames
Format settings, CABAC                   : Yes
Format settings, RefFrames               : 5 frames
Codec ID                                 : V_MPEG4/ISO/AVC
Duration                                 : 1 h 39 min
Bit rate                                 : 10 000 kb/s
Width                                    : 1 920 pixels
Height                                   : 802 pixels
Display aspect ratio                     : 2.40:1
Frame rate mode                          : Constant
Frame rate                               : 23.976 (24000/1001) FPS
Color space                              : YUV
Chroma subsampling                       : 4:2:0
Bit depth                                : 8 bits
Scan type                                : Progressive
Bits/(Pixel*Frame)                       : 0.271
Stream size                              : 6.95 GiB (89%)
Title                                    : Encoded by seleZen
Writing library                          : core 142 r2431+42 c69a006 tMod [[email protected] X86_64]
Encoding settings                        : cabac=1 / ref=5 / deblock=1:-2:-2 / analyse=0x3:0x133 / me=umh / subme=11 / psy=1 / fade_compensate=0.00 / psy_rd=0.00:0.01 / mixed_ref=1 / me_range=32 / chroma_me=1 / trellis=2 / 8x8dct=1 / cqm=0 / deadzone=21,11 / fast_pskip=0 / chroma_qp_offset=-1 / threads=24 / lookahead_threads=6 / sliced_threads=0 / nr=0 / decimate=0 / interlaced=0 / bluray_compat=0 / constrained_intra=0 / fgo=0 / bframes=10 / b_pyramid=2 / b_adapt=2 / b_bias=0 / direct=3 / weightb=1 / open_gop=0 / weightp=2 / keyint=240 / keyint_min=23 / scenecut=40 / intra_refresh=0 / rc_lookahead=50 / rc=2pass / mbtree=0 / bitrate=10000 / ratetol=1.0 / qcomp=0.60 / qpmin=0:0:0 / qpmax=51:51:51 / qpstep=4 / cplxblur=20.0 / qblur=0.5 / vbv_maxrate=50000 / vbv_bufsize=62500 / nal_hrd=none / filler=0 / ip_ratio=1.40 / pb_ratio=1.30 / aq=3:0.80 / aq-sensitivity=10.00 / aq-factor=1.00:1.00:1.00 / aq2=0 / aq3=0
Language                                 : English
Default                                  : Yes
Forced                                   : No

Audio #1
ID                                       : 2
Format                                   : AC-3
Format/Info                              : Audio Coding 3
Commercial name                          : Dolby Digital
Codec ID                                 : A_AC3
Duration                                 : 1 h 39 min
Bit rate mode                            : Constant
Bit rate                                 : 384 kb/s
Channel(s)                               : 6 channels
Channel layout                           : L R C LFE Ls Rs
Sampling rate                            : 48.0 kHz
Frame rate                               : 31.250 FPS (1536 SPF)
Bit depth                                : 16 bits
Compression mode                         : Lossy
Stream size                              : 274 MiB (3%)
Title                                    : , 5.1, 384 Kbps
Language                                 : Ukrainian
Service kind                             : Complete Main
Default                                  : Yes
Forced                                   : No

Audio #2
ID                                       : 3
Format                                   : AC-3
Format/Info                              : Audio Coding 3
Commercial name                          : Dolby Digital
Codec ID                                 : A_AC3
Duration                                 : 1 h 39 min
Bit rate mode                            : Constant
Bit rate                                 : 192 kb/s
Channel(s)                               : 2 channels
Channel layout                           : L R
Sampling rate                            : 48.0 kHz
Frame rate                               : 31.250 FPS (1536 SPF)
Bit depth                                : 16 bits
Compression mode                         : Lossy
Stream size                              : 137 MiB (2%)
Title                                    : , 2.0, 192 Kbps
Language                                 : Ukrainian
Service kind                             : Complete Main
Default                                  : No
Forced                                   : No

Audio #3
ID                                       : 4
Format                                   : AC-3
Format/Info                              : Audio Coding 3
Commercial name                          : Dolby Digital
Codec ID                                 : A_AC3
Duration                                 : 1 h 39 min
Bit rate mode                            : Constant
Bit rate                                 : 640 kb/s
Channel(s)                               : 6 channels
Channel layout                           : L R C LFE Ls Rs
Sampling rate                            : 48.0 kHz
Frame rate                               : 31.250 FPS (1536 SPF)
Bit depth                                : 16 bits
Compression mode                         : Lossy
Stream size                              : 456 MiB (6%)
Title                                    : , 5.1, 640 Kbps
Language                                 : English
Service kind                             : Complete Main
Default                                  : No
Forced                                   : No

Text #1
ID                                       : 5
Format                                   : UTF-8
Codec ID                                 : S_TEXT/UTF8
Codec ID/Info                            : UTF-8 Plain Text
Duration                                 : 1 h 33 min
Bit rate                                 : 26 b/s
Count of elements                        : 666
Stream size                              : 18.2 KiB (0%)
Title                                    : Full
Language                                 : English
Default                                  : No
Forced                                   : No

Text #2
ID                                       : 6
Format                                   : UTF-8
Codec ID                                 : S_TEXT/UTF8
Codec ID/Info                            : UTF-8 Plain Text
Duration                                 : 1 h 33 min
Bit rate                                 : 32 b/s
Count of elements                        : 893
Stream size                              : 22.1 KiB (0%)
Title                                    : SDH
Language                                 : English
Default                                  : No
Forced                                   : No

Menu
00:00:00.000                             : en:Chapter 01
00:08:21.126                             : en:Chapter 02
00:13:59.797                             : en:Chapter 03
00:18:42.163                             : en:Chapter 04
00:25:09.258                             : en:Chapter 05
00:31:29.054                             : en:Chapter 06
00:34:47.711                             : en:Chapter 07
00:41:41.332                             : en:Chapter 08
00:45:43.741                             : en:Chapter 09
00:52:26.727                             : en:Chapter 10
00:57:45.671                             : en:Chapter 11
01:05:11.491                             : en:Chapter 12
01:11:38.920                             : en:Chapter 13
01:17:23.639                             : en:Chapter 14
01:25:30.834                             : en:Chapter 15
01:33:35.568                             : en:Chapter 16




Джерело:
Особиста оцінка: 0 - не дивився


 Трекер:    Зареєстрований   

Завантажити / скачати фільм українською



відео для новачків



 Зареєстрований:   2020-02-07 23:49
 Розмір:   7.8 GB 
 Оцінка фільму:   7.4/10 (Голосів: 33)
   
Інші релізи
   Кур'єр / The Courier (2019) 720p Ukr/Eng | Sub Eng 11FrYkT  1 / 0   4.28 GB   2020-02-08 10:28 
   Кур'єр / The Courier (2019) antik_2008  2 / 0   1.47 GB   2020-02-08 02:06 
   Кур'єр / The Courier (2019) Remux 1080p Ukr/Eng | Sub Eng antik_2008  1 / 0   18.5 GB   2020-02-08 02:04 
   Кур'єр / The Courier (2019) 1080p H.265 Ukr/Eng | Sub Eng -Star-Lord-  1 / 0   5.28 GB   2020-02-08 00:13 
   Кур'єр / The Courier (2019) AVC Ukr/Eng | Sub Eng 11FrYkT  6 / 0   1.72 GB   2020-02-07 21:20 
Anonymous 







2020-02-07 23:51  
Торент файл оновлено. Додано 5.1 | 384 Kbps
13Mark 
Поважний учасник


З нами з: 25.04.08
Востаннє: 21.09.20
Повідомлень: 211

2020-02-15 01:09  
Яке дурне кіно)
ВАВУНЯ 
VIP


З нами з: 30.06.15
Востаннє: 21.09.20
Повідомлень: 297

2020-02-19 22:00  
мене вистачило на 40 хв. цієї "недострічки"... та й те, за два-три "підходи".
особиста оцінка 1/10
"1" - за чудову оперну музику у стрічці.

Ваш часовий пояс: GMT + 2 Години

Нова тема   Відповісти