Столику, накрийся! / Tischlein deck dich (2008) 720p 2xUkr/Ger

Нові коментарі

Нова тема   Відповісти
Автор Повідомлення
Anonymous 







2020-01-03 18:49  
Столику, накрийся! / Tischlein deck dich (2008) 720p 2xUkr/Ger

Столику, накрийся! / Tischlein deck dich (2008) 720p 2xUkr/Ger
DVD




Жанр: сімейний, дитячий, казка
Країна: Німеччина



Кінокомпанія: Askania Media Filmproduktion GmbH, Westdeutscher Rundfunk (WDR)
Режисер: Урліх Кьоніґ
Актори: Ремо Шульце, Вінфрід Ґлатцедер, Урзула Карусайт, Лінн Ройс, Карін Талер, Крістін Нойбауер, Міхель Бранднер, Вольфанг Вінклер, Інґо Науйокс, Дітмар Бер, Людгер Пізтор

Сюжет:
За мотивами казок братів Грімм. Багато років тому жив та був кравець. Було у нього три сини і всього одна коза. Щоб ця коза могла прогодувати їх всіх своїм молоком, її треба було добре і щодня випасати на пасовищі. Робити це синам доводилося по черзі. І ось одного разу ...


Тривалість: 00:58:29
Якість:
Відео:
кодек:
розмір кадру: 1280 х 720
бітрейт: 5559 кб/с

Аудіо # 1:
мова: українська
переклад: багатоголосий закадровий - ТЕТ
кодек: 2.0
бітрейт: 192 кб/с

Аудіо # 2:
мова: українська
переклад: двоголосий закадровий - Новий канал
кодек: 2.0
бітрейт: 192 кб/с

Аудіо # 3:
мова: німецька
переклад: оригінал
кодек: 2.0
бітрейт: 192 кб/с
Info
Код:
General
Unique ID                                : 99089083643222259589646366806839398287 (0x4A8BDD038666C8ABD16FA1611F380F8F)
Complete name                            : Tischlein deck dich (2008) 720p [2xUkr_Ger] [Hurtom].
Format                                   :
Format version                           : Version 4
File size                                : 2.51 GiB
Duration                                 : 58 min 29 s
Overall bit rate                         : 6 137 kb/s
Movie name                               : Столику, накрийся! (2008)
Encoded date                             : UTC 2020-01-03 14:54:55
Writing application                      : v37.0.0 ('Leave It') 32-bit
Writing library                          : libebml v1.3.9 + v1.5.2
Cover                                    : Yes
Attachments                              : cover.jpg

Video
ID                                       : 1
Format                                   : AVC
Format/Info                              : Advanced Video Codec
Format profile                           : [email protected]
Format settings                          : CABAC / 5 Ref Frames
Format settings, CABAC                   : Yes
Format settings, ReFrames                : 5 frames
Codec ID                                 : V_MPEG4/ISO/AVC
Duration                                 : 58 min 29 s
Bit rate                                 : 5 559 kb/s
Width                                    : 1 280 pixels
Height                                   : 720 pixels
Display aspect ratio                     : 16:9
Frame rate mode                          : Constant
Frame rate                               : 25.000 FPS
Color space                              : YUV
Chroma subsampling                       : 4:2:0
Bit depth                                : 8 bits
Scan type                                : Progressive
Bits/(Pixel*Frame)                       : 0.241
Stream size                              : 2.27 GiB (91%)
Writing library                          : core 133 r2334 a3ac64b
Encoding settings                        : cabac=1 / ref=5 / deblock=1:0:0 / analyse=0x3:0x113 / me=umh / subme=7 / psy=1 / psy_rd=1.00:0.00 / mixed_ref=1 / me_range=16 / chroma_me=1 / trellis=1 / 8x8dct=1 / cqm=0 / deadzone=21,11 / fast_pskip=0 / chroma_qp_offset=-2 / threads=3 / lookahead_threads=1 / sliced_threads=0 / nr=0 / decimate=1 / interlaced=0 / bluray_compat=0 / constrained_intra=0 / bframes=3 / b_pyramid=2 / b_adapt=1 / b_bias=0 / direct=1 / weightb=1 / open_gop=0 / weightp=2 / keyint=250 / keyint_min=25 / scenecut=40 / intra_refresh=0 / rc_lookahead=40 / rc=crf / mbtree=1 / crf=20.0 / qcomp=0.60 / qpmin=0 / qpmax=69 / qpstep=4 / ip_ratio=1.40 / aq=1:1.00
Language                                 : German
Default                                  : Yes
Forced                                   : No

Audio #1
ID                                       : 2
Format                                   : AC-3
Format/Info                              : Audio Coding 3
Commercial name                          : Dolby Digital
Codec ID                                 : A_AC3
Duration                                 : 58 min 29 s
Bit rate mode                            : Constant
Bit rate                                 : 192 kb/s
Channel(s)                               : 2 channels
Channel layout                           : L R
Sampling rate                            : 48.0 kHz
Frame rate                               : 31.250 FPS (1536 SPF)
Bit depth                                : 16 bits
Compression mode                         : Lossy
Stream size                              : 80.3 MiB (3%)
Title                                    : TET
Language                                 : Ukrainian
Service kind                             : Complete Main
Default                                  : Yes
Forced                                   : Yes

Audio #2
ID                                       : 3
Format                                   : AC-3
Format/Info                              : Audio Coding 3
Commercial name                          : Dolby Digital
Codec ID                                 : A_AC3
Duration                                 : 58 min 29 s
Bit rate mode                            : Constant
Bit rate                                 : 192 kb/s
Channel(s)                               : 2 channels
Channel layout                           : L R
Sampling rate                            : 48.0 kHz
Frame rate                               : 31.250 FPS (1536 SPF)
Bit depth                                : 16 bits
Compression mode                         : Lossy
Stream size                              : 80.3 MiB (3%)
Title                                    : Новий канал
Language                                 : Ukrainian
Service kind                             : Complete Main
Default                                  : No
Forced                                   : No

Audio #3
ID                                       : 4
Format                                   : AC-3
Format/Info                              : Audio Coding 3
Commercial name                          : Dolby Digital
Codec ID                                 : A_AC3
Duration                                 : 58 min 29 s
Bit rate mode                            : Constant
Bit rate                                 : 192 kb/s
Channel(s)                               : 2 channels
Channel layout                           : L R
Sampling rate                            : 48.0 kHz
Frame rate                               : 31.250 FPS (1536 SPF)
Bit depth                                : 16 bits
Compression mode                         : Lossy
Stream size                              : 80.3 MiB (3%)
Language                                 : German
Service kind                             : Complete Main
Default                                  : No
Forced                                   : No

Скріншоти





Джерело:
За доріжку від ТЕТ дякую пану РОМЕО, від Нового - пану SgBILko.
Звук взято з релізу


 Трекер:    Зареєстрований   

Завантажити / скачати фільм українською



відео для новачків



 Зареєстрований:   2020-01-03 18:49
 Розмір:   2.51 GB 
 Оцінка фільму:   10/10 (Голосів: 7)
   
Інші релізи
TWISTER 
Новенький


З нами з: 14.06.09
Востаннє: 29.09.20
Повідомлень: 22

2020-01-03 19:24  
А Білосніжки ще нема?
Anonymous 







2020-01-04 01:38  
TWISTER написано:
А Білосніжки ще нема?

https://toloka.to/t64976

Додано через 2 години 50 хвилин 34 секунди:

якщо ж запитували про HD, то незабаром зроблю

TWISTER 
Новенький


З нами з: 14.06.09
Востаннє: 29.09.20
Повідомлень: 22

2020-01-04 19:13  
Дякую)

А чи багато є цих німецьких казок від Sechs auf einen Streich тут?

Anonymous 







2020-01-04 21:56  
TWISTER написано:
А чи багато є цих німецьких казок від Sechs auf einen Streich тут?

ніби всі (чи майже)
треба буле зробити підбірку з посиланнями
поки шукайте за оригінальними назвами, список тут
https://de.wikipedia.org/wiki/Sechs_auf_einen_Streich/Episodenliste

TWISTER 
Новенький


З нами з: 14.06.09
Востаннє: 29.09.20
Повідомлень: 22

2020-01-04 23:53  
Anonymous написано:

поки шукайте за оригінальними назвами, список тут
https://de.wikipedia.org/wiki/Sechs_auf_einen_Streich/Episodenliste


Дякую

Ваш часовий пояс: GMT + 2 Години

Нова тема   Відповісти