Мисливці за привидами. Дилогія / Ghost Busters. Dilogy / Ghostbusters. Dilogy (1984, 1989) [Mastered in 4K] 1080p H.265 3xUkr/Eng | Sub Eng

Нові коментарі

Нова тема   Відповісти
Автор Повідомлення
Anonymous 







2020-01-02 23:52  
Мисливці за привидами. Дилогія / Ghost Busters. Dilogy / Ghostbusters. Dilogy (1984, 1989) [Mastered in 4K] 1080p H.265 3xUkr/Eng | Sub Eng

Мисливці за привидами. Дилогія / Ghost Busters. Dilogy / Ghostbusters. Dilogy (1984, 1989) [Mastered in 4K] 1080p H.265 3xUkr/Eng | Sub Eng

1. 2.

1. Мисливці за привидами / Ghost Busters / Ghostbusters (1984) (Mastered in 4K) 1080p H.265 3xUkr/Eng | Sub Eng
Мисливці за привидами / Ghost Busters / Ghostbusters (1984) [Mastered in 4K] 1080p H.265 3xUkr/Eng | Sub Eng

Мисливці за привидами. Дилогія / Ghost Busters. Dilogy / Ghostbusters. Dilogy (1984, 1989) [Mastered in 4K] 1080p H.265 3xUkr/Eng | Sub Eng


Жанр: фантастика, комедія
Країна: США
Кінокомпанія: Black Rhino Productions, Columbia Pictures Corporation, Delphi Films
Режисер: Іван Райтмен / Ivan Reitman
Актори: Білл Мюррей / Bill Murray, Ден Ейкройд / Dan Aykroyd, Сіґурні Вівер / Sigourney Weaver, Гарольд Реміс / Harold Ramis, Рік Мореніс / Rick Moranis, Ені Поттс / Annie Potts та інші

Сюжет:
Наприкінці двадцятого століття виявляється, що в Нью-Йорку живуть не лише звичайні громадяни, але й… привиди. Багатомільйонне населення не може протистояти натиску надприродного. Зрештою на шляху незліченних монстрів не залишається нікого, окрім трьох учених-парапсихологів, яким відомо все про потойбічний світ, щоправда, лише в теорії. І тепер їм доведеться залишити запорошені кабінети й застосувати свої знання на практиці!

Тривалість: 01:45:08
Якість: [Mastered in 4K]

Відео:
кодек: H.265 (HEVC)
розмір кадру: 1920 x 804
бітрейт: 15 080 кб/с
бітова глибина: 10 біт

Увага! Перед завантаженням переконайтесь, що ваш пристрій відтворення (та/або ПЗ) підтримує H.265 (HEVC)

Аудіо # 1:
мова: українська
переклад: двоголосий закадровий ,
кодек: AC-3 2.0
бітрейт: 192 кб/с

Аудіо # 2:
мова: українська
переклад: багатоголосий закадровий , ,
кодек: AC-3 2.0
бітрейт: 192 кб/с

Аудіо # 3:
мова: українська
переклад: багатоголосий закадровий
кодек: AC-3 2.0
бітрейт: 192 кб/с

Аудіо # 4:
мова: англійська
переклад: оригінал
кодек: AC-3 5.1
бітрейт: 640 кб/с

Субтитри # 1: (Full)
мова: англійська
тип: програмні (м'які)
формат: *.srt


Info
Код:
General
Unique ID                                : 197718204232273330438463331329610897614 (0x94BF24191C087B7DE409C277031C58CE)
Complete name                            : 01. Ghostbusters (1984) 1080p H.265 [3xUKR_ENG] [Hurtom].
Format                                   :
Format version                           : Version 4
File size                                : 12.0 GiB
Duration                                 : 1 h 45 min
Overall bit rate                         : 16.3 Mb/s
Movie name                               : Мисливці за привидами / Ghost Busters (1984) [Mastered in 4K]
Encoded date                             : UTC 2020-01-02 14:46:49
Writing application                      : v20.0.0 ('I Am The Sun') 64-bit
Writing library                          : libebml v1.3.5 + v1.4.8
Cover                                    : Yes
Attachments                              : Cover.jpg

Video
ID                                       : 1
Format                                   : HEVC
Format/Info                              : High Efficiency Video Coding
Format profile                           : Main [email protected]@High
Codec ID                                 : V_MPEGH/ISO/HEVC
Duration                                 : 1 h 45 min
Bit rate                                 : 15.1 Mb/s
Width                                    : 1 920 pixels
Height                                   : 804 pixels
Display aspect ratio                     : 2.40:1
Frame rate mode                          : Constant
Frame rate                               : 23.976 (23976/1000) FPS
Original frame rate                      : 23.976 (24000/1001) FPS
Color space                              : YUV
Chroma subsampling                       : 4:2:0
Bit depth                                : 10 bits
Bits/(Pixel*Frame)                       : 0.407
Stream size                              : 11.1 GiB (93%)
Title                                    : Мисливці за привидами / Ghost Busters (1984) [Mastered in 4K]
Writing library                          : x265 3.2.1+1-b5c86a64bbbe:[Windows][MSVC 1923][64 bit] 10bit
Encoding settings                        : cpuid=1111039 / frame-threads=3 / numa-pools=12 / wpp / no-pmode / no-pme / no-psnr / no-ssim / log-level=2 / input-csp=1 / input-res=1920x804 / interlace=0 / total-frames=144689 / level-idc=41 / high-tier=1 / uhd-bd=0 / ref=5 / no-allow-non-conformance / no-repeat-headers / annexb / no-aud / no-hrd / info / hash=0 / no-temporal-layers / open-gop / min-keyint=23 / keyint=240 / gop-lookahead=0 / bframes=16 / b-adapt=2 / b-pyramid / bframe-bias=0 / rc-lookahead=60 / lookahead-slices=4 / scenecut=40 / radl=0 / no-splice / no-intra-refresh / ctu=32 / min-cu-size=8 / rect / amp / max-tu-size=32 / tu-inter-depth=4 / tu-intra-depth=4 / limit-tu=1 / rdoq-level=2 / dynamic-rd=0.00 / no-ssim-rd / signhide / no-tskip / nr-intra=0 / nr-inter=0 / no-constrained-intra / no-strong-intra-smoothing / max-merge=4 / limit-refs=2 / limit-modes / me=3 / subme=7 / merange=57 / temporal-mvp / no-hme / weightp / weightb / no-analyze-src-pics / deblock=0:0 / no-sao / no-sao-non-deblock / rd=6 / selective-sao=0 / no-early-skip / no-rskip / no-fast-intra / no-tskip-fast / no-cu-lossless / no-b-intra / no-splitrd-skip / rdpenalty=0 / psy-rd=2.00 / psy-rdoq=1.00 / no-rd-refine / no-lossless / cbqpoffs=0 / crqpoffs=0 / rc=crf / crf=20.0 / qcomp=0.60 / qpstep=4 / stats-write=0 / stats-read=0 / vbv-maxrate=50000 / vbv-bufsize=50000 / vbv-init=0.9 / crf-max=0.0 / crf-min=0.0 / ipratio=1.40 / pbratio=1.30 / aq-mode=1 / aq-strength=1.00 / no-cutree / zone-count=0 / no-strict-cbr / qg-size=32 / no-rc-grain / qpmax=69 / qpmin=0 / no-const-vbv / sar=1 / overscan=0 / videoformat=5 / range=0 / colorprim=1 / transfer=1 / colormatrix=1 / chromaloc=0 / display-window=0 / cll=0,0 / min-luma=0 / max-luma=1023 / log2-max-poc-lsb=8 / vui-timing-info / vui-hrd-info / slices=1 / no-opt-qp-pps / no-opt-ref-list-length-pps / no-multi-pass-opt-rps / scenecut-bias=0.05 / no-opt-cu-delta-qp / no-aq-motion / no-hdr / no-hdr-opt / no-dhdr10-opt / no-idr-recovery-sei / analysis-reuse-level=5 / scale-factor=0 / refine-intra=0 / refine-inter=0 / refine-mv=1 / refine-ctu-distortion=0 / no-limit-sao / ctu-info=0 / no-lowpass-dct / refine-analysis-type=0 / copy-pic=1 / max-ausize-factor=1.0 / no-dynamic-refine / no-single-sei / no-hevc-aq / no-svt / no-field / qp-adaptation-range=1.00
Default                                  : Yes
Forced                                   : No
Color range                              : Limited
Color primaries                          : BT.709
Transfer characteristics                 : BT.709
Matrix coefficients                      : BT.709

Audio #1
ID                                       : 2
Format                                   : AC-3
Format/Info                              : Audio Coding 3
Commercial name                          : Dolby Digital
Codec ID                                 : A_AC3
Duration                                 : 1 h 45 min
Bit rate mode                            : Constant
Bit rate                                 : 192 kb/s
Channel(s)                               : 2 channels
Channel layout                           : L R
Sampling rate                            : 48.0 kHz
Frame rate                               : 31.250 FPS (1536 SPF)
Bit depth                                : 16 bits
Compression mode                         : Lossy
Stream size                              : 144 MiB (1%)
Title                                    : / 2.0 Ch / 192 kbps / ДЗ / 1+1, TET
Language                                 : Ukrainian
Service kind                             : Complete Main
Default                                  : Yes
Forced                                   : Yes

Audio #2
ID                                       : 3
Format                                   : AC-3
Format/Info                              : Audio Coding 3
Commercial name                          : Dolby Digital
Codec ID                                 : A_AC3
Duration                                 : 1 h 45 min
Bit rate mode                            : Constant
Bit rate                                 : 192 kb/s
Channel(s)                               : 2 channels
Channel layout                           : L R
Sampling rate                            : 48.0 kHz
Frame rate                               : 31.250 FPS (1536 SPF)
Bit depth                                : 16 bits
Compression mode                         : Lossy
Stream size                              : 144 MiB (1%)
Title                                    : / 2.0 Ch / 192 kbps / БЗ / Kanal Ukraina, ICTV, AMC
Language                                 : Ukrainian
Service kind                             : Complete Main
Default                                  : No
Forced                                   : No

Audio #3
ID                                       : 4
Format                                   : AC-3
Format/Info                              : Audio Coding 3
Commercial name                          : Dolby Digital
Codec ID                                 : A_AC3
Duration                                 : 1 h 45 min
Bit rate mode                            : Constant
Bit rate                                 : 192 kb/s
Channel(s)                               : 2 channels
Channel layout                           : L R
Sampling rate                            : 48.0 kHz
Frame rate                               : 31.250 FPS (1536 SPF)
Bit depth                                : 16 bits
Compression mode                         : Lossy
Stream size                              : 144 MiB (1%)
Title                                    : / 2.0 Ch / 192 kbps / БЗ / Novy Kanal
Language                                 : Ukrainian
Service kind                             : Complete Main
Default                                  : No
Forced                                   : No

Audio #4
ID                                       : 5
Format                                   : AC-3
Format/Info                              : Audio Coding 3
Commercial name                          : Dolby Digital
Codec ID                                 : A_AC3
Duration                                 : 1 h 45 min
Bit rate mode                            : Constant
Bit rate                                 : 640 kb/s
Channel(s)                               : 6 channels
Channel layout                           : L R C LFE Ls Rs
Sampling rate                            : 48.0 kHz
Frame rate                               : 31.250 FPS (1536 SPF)
Bit depth                                : 16 bits
Compression mode                         : Lossy
Stream size                              : 481 MiB (4%)
Title                                    : / 5.1 Ch / 640 kbps / Original
Language                                 : English
Service kind                             : Complete Main
Default                                  : No
Forced                                   : No

Text
ID                                       : 6
Format                                   : UTF-8
Codec ID                                 : S_TEXT/UTF8
Codec ID/Info                            : UTF-8 Plain Text
Duration                                 : 1 h 36 min
Bit rate                                 : 63 b/s
Count of elements                        : 1132
Stream size                              : 45.2 KiB (0%)
Title                                    : Full
Language                                 : English
Default                                  : No
Forced                                   : No

Menu
00:00:00.000                             : en:Start
00:02:42.996                             : en:Shock the Nerd
00:06:38.940                             : en:"Get Her!"
00:13:13.543                             : en:Terminated
00:15:46.445                             : en:Fixer-Upper
00:16:45.338                             : en:Spook Central
00:18:36.157                             : en:Fried Eggs & Zuul
00:20:51.125                             : en:"Bug-Eyes Thing"
00:21:50.059                             : en:The 1st Customer
00:23:59.938                             : en:Checking Out Dana
00:28:35.756                             : en:"We Got One!"
00:32:31.700                             : en:"He Slimed Me."
00:34:51.965                             : en:"Nice Shootin', Tex."
00:39:06.678                             : en:Welcome Aboard
00:46:07.848                             : en:E.P.A. Man
00:48:46.715                             : en:Dogs Drag Dana
00:52:15.883                             : en:"Who Brought the Dog?"
00:53:53.564                             : en:Terror on the Tavern
00:55:04.051                             : en:Peter's Date with Zuul
00:59:13.133                             : en:Keymaster
01:04:33.161                             : en:Out of Biz
01:10:41.946                             : en:Holding Cell
01:13:35.286                             : en:Keeper Meets Master
01:14:41.560                             : en:Biblical
01:18:58.525                             : en:Working the Crowd
01:25:17.029                             : en:Gozer
01:30:44.731                             : en:Stay Puft Man
01:33:49.207                             : en:Crossing Streams
Світлини



2. Мисливці за привидами 2 / Ghostbusters II (1989) (Mastered in 4K) 1080p H.265 3xUkr/Eng | Sub Eng
Мисливці за привидами 2 / Ghostbusters II (1989) (Mastered in 4K) 1080p H.265 3xUkr/Eng | Sub Eng

Мисливці за привидами. Дилогія / Ghost Busters. Dilogy / Ghostbusters. Dilogy (1984, 1989) [Mastered in 4K] 1080p H.265 3xUkr/Eng | Sub Eng


Жанр: комедія, фентезі, жахи
Країна: США
Кінокомпанія: Columbia Pictures Corporation
Режисер: Айван Райтман
Актори: Біл Мюррей (Bill Murray), Ден Екройд, Сіґурні Вівер (Sigourney Weaver), Гарольд Реміс, Рік Мораніс, Ерні Хадсон, Енні Поттс та інші

Сюжет:
Після того, як мисливці за привидами перемогли могутнього привида, що загрожував знищити світ живих, минуло п'ять років. З тих пір нових примар не з'являлося і про героїв забули. Герої зайнялися кожен своєю справою. Але ось одного разу в головний музей Нью-Йорка «Метрополітен» привезли портрет стародавнього карпатського володаря Віго. Його дух повертається до життя на полотні і, підпорядкувавши собі доглядача музею Яноша, вимагає від нього знайти дитину, в яку він міг би перевтілитися. В цей же час мисливці за привидами дізнаються, що під містом з'явився якийсь рожевий слиз, який під дією людських емоцій породжує демонів. В результаті натовпи нечисті атакують Нью-Йорк і герої знову беруться за свою зброю....

Тривалість: 01:48:19
Якість: [Mastered in 4K]

Відео:
кодек: H.265 (HEVC)
розмір кадру: 1920 x 800
бітрейт: 9 934 кб/с
бітова глибина: 10 біт

Увага! Перед завантаженням переконайтесь, що ваш пристрій відтворення (та/або ПЗ) підтримує H.265 (HEVC)

Аудіо # 1:
мова: українська
переклад: двоголосий закадровий ,
кодек: AC-3 2.0
бітрейт: 192 кб/с

Аудіо # 2:
мова: українська
переклад: двоголосий закадровий ,
кодек: AC-3 2.0
бітрейт: 192 кб/с

Аудіо # 3:
мова: українська
переклад: багатоголосий закадровий ,
кодек: AC-3 2.0
бітрейт: 192 кб/с

Аудіо # 4:
мова: англійська
переклад: оригінал
кодек: AC-3 5.1
бітрейт: 640 кб/с

Субтитри # 1: (Full)
мова: англійська
тип: програмні (м'які)
формат: *.srt


Info
Код:
General
Unique ID                                : 160686473562015444376320179436029874846 (0x78E316CFDABDD2747C8FB8CA2452129E)
Complete name                            : 02. Ghostbusters II (1989) 1080p H.265 [3xUKR_ENG] [Hurtom].
Format                                   :
Format version                           : Version 4
File size                                : 8.44 GiB
Duration                                 : 1 h 48 min
Overall bit rate                         : 11.2 Mb/s
Movie name                               : Мисливці за привидами 2 / Ghostbusters II (1989) [Mastered in 4K]
Encoded date                             : UTC 2020-01-02 14:59:45
Writing application                      : v20.0.0 ('I Am The Sun') 64-bit
Writing library                          : libebml v1.3.5 + v1.4.8
Cover                                    : Yes
Attachments                              : Cover.jpg

Video
ID                                       : 1
Format                                   : HEVC
Format/Info                              : High Efficiency Video Coding
Format profile                           : Main [email protected]@High
Codec ID                                 : V_MPEGH/ISO/HEVC
Duration                                 : 1 h 48 min
Bit rate                                 : 9 934 kb/s
Width                                    : 1 920 pixels
Height                                   : 800 pixels
Display aspect ratio                     : 2.40:1
Frame rate mode                          : Constant
Frame rate                               : 23.976 (23976/1000) FPS
Original frame rate                      : 23.976 (24000/1001) FPS
Color space                              : YUV
Chroma subsampling                       : 4:2:0
Bit depth                                : 10 bits
Bits/(Pixel*Frame)                       : 0.270
Stream size                              : 7.52 GiB (89%)
Title                                    : Мисливці за привидами 2 / Ghostbusters II (1989) [Mastered in 4K]
Writing library                          : x265 3.2.1+1-b5c86a64bbbe:[Windows][MSVC 1923][64 bit] 10bit
Encoding settings                        : cpuid=1111039 / frame-threads=3 / numa-pools=12 / wpp / no-pmode / no-pme / no-psnr / no-ssim / log-level=2 / input-csp=1 / input-res=1920x800 / interlace=0 / total-frames=147051 / level-idc=41 / high-tier=1 / uhd-bd=0 / ref=5 / no-allow-non-conformance / no-repeat-headers / annexb / no-aud / no-hrd / info / hash=0 / no-temporal-layers / open-gop / min-keyint=23 / keyint=240 / gop-lookahead=0 / bframes=13 / b-adapt=2 / b-pyramid / bframe-bias=0 / rc-lookahead=60 / lookahead-slices=4 / scenecut=40 / radl=0 / no-splice / no-intra-refresh / ctu=32 / min-cu-size=8 / rect / amp / max-tu-size=32 / tu-inter-depth=4 / tu-intra-depth=4 / limit-tu=1 / rdoq-level=2 / dynamic-rd=0.00 / no-ssim-rd / signhide / no-tskip / nr-intra=0 / nr-inter=0 / no-constrained-intra / no-strong-intra-smoothing / max-merge=4 / limit-refs=2 / limit-modes / me=3 / subme=7 / merange=57 / temporal-mvp / no-hme / weightp / weightb / no-analyze-src-pics / deblock=-3:-3 / no-sao / no-sao-non-deblock / rd=6 / selective-sao=0 / no-early-skip / no-rskip / no-fast-intra / no-tskip-fast / no-cu-lossless / no-b-intra / no-splitrd-skip / rdpenalty=0 / psy-rd=2.00 / psy-rdoq=1.00 / no-rd-refine / no-lossless / cbqpoffs=0 / crqpoffs=0 / rc=crf / crf=20.0 / qcomp=0.65 / qpstep=4 / stats-write=0 / stats-read=0 / vbv-maxrate=50000 / vbv-bufsize=50000 / vbv-init=0.9 / crf-max=0.0 / crf-min=0.0 / ipratio=1.40 / pbratio=1.30 / aq-mode=1 / aq-strength=1.00 / no-cutree / zone-count=0 / no-strict-cbr / qg-size=32 / no-rc-grain / qpmax=69 / qpmin=0 / no-const-vbv / sar=1 / overscan=0 / videoformat=5 / range=0 / colorprim=1 / transfer=1 / colormatrix=1 / chromaloc=0 / display-window=0 / cll=0,0 / min-luma=0 / max-luma=1023 / log2-max-poc-lsb=8 / vui-timing-info / vui-hrd-info / slices=1 / no-opt-qp-pps / no-opt-ref-list-length-pps / no-multi-pass-opt-rps / scenecut-bias=0.05 / no-opt-cu-delta-qp / no-aq-motion / no-hdr / no-hdr-opt / no-dhdr10-opt / no-idr-recovery-sei / analysis-reuse-level=5 / scale-factor=0 / refine-intra=0 / refine-inter=0 / refine-mv=1 / refine-ctu-distortion=0 / no-limit-sao / ctu-info=0 / no-lowpass-dct / refine-analysis-type=0 / copy-pic=1 / max-ausize-factor=1.0 / no-dynamic-refine / no-single-sei / no-hevc-aq / no-svt / no-field / qp-adaptation-range=1.00
Default                                  : Yes
Forced                                   : No
Color range                              : Limited
Color primaries                          : BT.709
Transfer characteristics                 : BT.709
Matrix coefficients                      : BT.709

Audio #1
ID                                       : 2
Format                                   : AC-3
Format/Info                              : Audio Coding 3
Commercial name                          : Dolby Digital
Codec ID                                 : A_AC3
Duration                                 : 1 h 48 min
Bit rate mode                            : Constant
Bit rate                                 : 192 kb/s
Channel(s)                               : 2 channels
Channel layout                           : L R
Sampling rate                            : 48.0 kHz
Frame rate                               : 31.250 FPS (1536 SPF)
Bit depth                                : 16 bits
Compression mode                         : Lossy
Stream size                              : 149 MiB (2%)
Title                                    : / 2.0 Ch / 192 kbps / ДЗ / 1+1, TET
Language                                 : Ukrainian
Service kind                             : Complete Main
Default                                  : Yes
Forced                                   : Yes

Audio #2
ID                                       : 3
Format                                   : AC-3
Format/Info                              : Audio Coding 3
Commercial name                          : Dolby Digital
Codec ID                                 : A_AC3
Duration                                 : 1 h 48 min
Bit rate mode                            : Constant
Bit rate                                 : 192 kb/s
Channel(s)                               : 2 channels
Channel layout                           : L R
Sampling rate                            : 48.0 kHz
Frame rate                               : 31.250 FPS (1536 SPF)
Bit depth                                : 16 bits
Compression mode                         : Lossy
Stream size                              : 149 MiB (2%)
Title                                    : / 2.0 Ch / 192 kbps / ДЗ / Novy Kanal, ICTV
Language                                 : Ukrainian
Service kind                             : Complete Main
Default                                  : No
Forced                                   : No

Audio #3
ID                                       : 4
Format                                   : AC-3
Format/Info                              : Audio Coding 3
Commercial name                          : Dolby Digital
Codec ID                                 : A_AC3
Duration                                 : 1 h 48 min
Bit rate mode                            : Constant
Bit rate                                 : 192 kb/s
Channel(s)                               : 2 channels
Channel layout                           : L R
Sampling rate                            : 48.0 kHz
Frame rate                               : 31.250 FPS (1536 SPF)
Bit depth                                : 16 bits
Compression mode                         : Lossy
Stream size                              : 149 MiB (2%)
Title                                    : / 2.0 Ch / 192 kbps / БЗ / Kanal Ukraina, AMC
Language                                 : Ukrainian
Service kind                             : Complete Main
Default                                  : No
Forced                                   : No

Audio #4
ID                                       : 5
Format                                   : AC-3
Format/Info                              : Audio Coding 3
Commercial name                          : Dolby Digital
Codec ID                                 : A_AC3
Duration                                 : 1 h 48 min
Bit rate mode                            : Constant
Bit rate                                 : 640 kb/s
Channel(s)                               : 6 channels
Channel layout                           : L R C LFE Ls Rs
Sampling rate                            : 48.0 kHz
Frame rate                               : 31.250 FPS (1536 SPF)
Bit depth                                : 16 bits
Compression mode                         : Lossy
Stream size                              : 496 MiB (6%)
Title                                    : / 5.1 Ch / 640 kbps / Original
Language                                 : English
Service kind                             : Complete Main
Default                                  : No
Forced                                   : No

Text
ID                                       : 6
Format                                   : UTF-8
Codec ID                                 : S_TEXT/UTF8
Codec ID/Info                            : UTF-8 Plain Text
Duration                                 : 1 h 38 min
Bit rate                                 : 72 b/s
Count of elements                        : 1405
Stream size                              : 52.3 KiB (0%)
Title                                    : Full
Language                                 : English
Default                                  : No
Forced                                   : No

Menu
00:00:00.000                             : en:Start
00:05:00.549                             : en:"World of the Psychic"
00:11:44.162                             : en:Dr. Janosz Poha
00:18:16.012                             : en:Ray's Occult Books
00:23:36.498                             : en:Investigating Oscar
00:32:39.958                             : en:Late-Night Excavation
00:39:20.817                             : en:Vigo Commands
00:46:15.147                             : en:Down the Shaft
00:52:36.487                             : en:Great Blackout of 1989
00:58:45.981                             : en:Their Day in Court
01:05:34.055                             : en:The Scoleri Brothers
01:14:06.776                             : en:Two in the Box
01:19:22.216                             : en:Mood Slime
01:27:22.529                             : en:A Tub Full of Slime
01:33:06.539                             : en:Peter's Place
01:38:10.635                             : en:Vigo 101
Світлини




Джерело: &
Особиста оцінка: 10 - без зайвих вагань рекомендую всім!


Срібний реліз (на рейтинг впливає 50% завантаженого)
 Трекер:    Зареєстрований   

Завантажити / скачати фільм українською



відео для новачків



 Зареєстрований:   2020-01-02 23:52
 Розмір:   20.41 GB 
 Оцінка фільму:   10/10 (Голосів: 8)
   
klik333 
Новенький


З нами з: 17.04.13
Востаннє: 17.09.20
Повідомлень: 1

2020-02-10 02:59  
Чия озвучка найяскравіша?
Ваш часовий пояс: GMT + 2 Години

Нова тема   Відповісти