Ульотні комашки / Ying huo qi bing (2017) 1080p

Нові коментарі

Нова тема   Відповісти
Автор Повідомлення
sergiyko.5 
VIP


З нами з: 25.02.16
Востаннє: 26.02.20
Повідомлень: 2954

2020-01-02 17:52  
Ульотні комашки / Ying huo qi bing (2017) 1080p


Ульотні комашки / Ying huo qi bing (2017) 1080p

Жанр: пригоди, фентезі, комедія
Країна: Китай
Режисер: Ден Вэйфен

Сюжет:
Оптимістичний світлячок Діньдінь разом із новим другом Жучарою збираються врятувати жителів селища від лиходія на прізвисько Вовчий король і його зграї сарани. У цьому їм допоможуть ульотні комашки, на чолі з роботом Авророю.




Тривалість: 01:24:33
Якість:

Відео: кодек: розмір кадру: 1920 х 1080 бітрейт: 4000 кб/с
Аудіо: мова: українська переклад: багатоголосий закадровий кодек: 2.0 бітрейт: 192 кб/с
Про файл:
General
Unique ID : 149153449512218134883393789278733161356 (0x7035E8D32F49AF0533E169CF7AEB538C)
Complete name : D:\Documents\Torrents\MULTSER_2\Ying huo qi bing.2017.1080p..
Format :
Format version : Version 4
File size : 2.48 GiB
Duration : 1 h 24 min
Overall bit rate : 4 191 kb/s
Movie name : Ying huo qi bing 2017 by sergiyko
Encoded date : UTC 2020-01-02 15:47:26
Writing application : v41.0.0 ('Smarra') 64-bit
Writing library : libebml v1.3.9 + v1.5.2

Video
ID : 1
Format : AVC
Format/Info : Advanced Video Codec
Format profile : [email protected]
Format settings : CABAC / 3 Ref Frames
Format settings, CABAC : Yes
Format settings, Reference : 3 frames
Format settings, GOP : M=1, N=72
Codec ID : V_MPEG4/ISO/AVC
Duration : 1 h 24 min
Bit rate : 3 999 kb/s
Width : 1 920 pixels
Height : 1 080 pixels
Display aspect ratio : 16:9
Frame rate mode : Constant
Frame rate : 24.000 FPS
Color space : YUV
Chroma subsampling : 4:2:0
Bit depth : 8 bits
Scan type : Progressive
Bits/(Pixel*Frame) : 0.080
Stream size : 2.36 GiB (95%)
Language : English
Default : Yes
Forced : No

Audio
ID : 2
Format : LC
Format/Info : Advanced Audio Codec Low Complexity
Codec ID : A_AAC-2
Duration : 1 h 24 min
Bit rate : 192 kb/s
Channel(s) : 2 channels
Channel layout : L R
Sampling rate : 44.1 kHz
Frame rate : 43.066 FPS (1024 SPF)
Compression mode : Lossy
Stream size : 115 MiB (5%)
Language : Ukrainian
Default : Yes
Forced : No
Скріншоти:


Джерело: Ме**го

Реліз створено: sergiyko


 Трекер:    Зареєстрований   

Завантажити / скачати мультфільм українською



відео для новачків



 Зареєстрований:   2020-01-02 17:52
 Розмір:   2.48 GB 
 Оцінка мультфільму:   10/10 (Голосів: 4)
   
Інші релізи
   Ульотні комашки / Ying huo qi bing (2017) AVC sergiyko.5  7 / 0   916 MB   2020-01-02 20:15 
Ваш часовий пояс: GMT + 2 Години

Нова тема   Відповісти