Рятівники / Wan ou qi bing (2017) AVC

Нові коментарі

Нова тема   Відповісти
Автор Повідомлення
sergiyko.5 
Забанено
Забанено


З нами з: 25.02.16
Востаннє: 29.10.20
Повідомлень: 3651

2020-01-02 16:44  
Рятівники / Wan ou qi bing (2017) AVC


Рятівники / Wan ou qi bing (2017) AVC

Жанр: дитячі, пригоди
Країна: Китай
Режисер: Шень Юй, Хуан Ян
Ролі озвучували: Ян Лічжень, Лі Е, Ван Хен, Лі Чуаньін

Сюжет:
Тигр і Зубастик відправляються назустріч неймовірним пригодам у віртуальному світі. Там їм доведеться використовувати кмітливість і підтримувати одне одного в скрутних ситуаціях. Завдяки цьому вони повернуться в реальність разом із господинею й будуть заслужено називатися "рятівниками".




Тривалість: 01:27:54
Якість:

Відео: кодек: розмір кадру: 1024 х 424 бітрейт: 1700 кб/с
Аудіо: мова: українська переклад: багатоголосий закадровий кодек: 2.0 бітрейт: 192 кб/с
Про файл:
General
Unique ID : 16554629131292871951654036062491226956 (0xC744E3B8DC308C33C116F5A49F1B34C)
Complete name : D:\Documents\Torrents\MULTSER_2\Wan ou qi bing.2017..
Format :
Format version : Version 4
File size : 1.17 GiB
Duration : 1 h 27 min
Overall bit rate : 1 898 kb/s
Movie name : Wan ou qi bing 2017 by sergiyko
Encoded date : UTC 2020-01-02 16:11:52
Writing application : v41.0.0 ('Smarra') 64-bit
Writing library : libebml v1.3.9 + v1.5.2
Cover : Yes
Attachments : cover.jpeg

Video
ID : 1
Format : AVC
Format/Info : Advanced Video Codec
Format profile : [email protected]
Format settings : CABAC / 10 Ref Frames
Format settings, CABAC : Yes
Format settings, Reference fra : 10 frames
Codec ID : V_MPEG4/ISO/AVC
Duration : 1 h 27 min
Bit rate : 1 703 kb/s
Width : 1 024 pixels
Height : 424 pixels
Display aspect ratio : 2.40:1
Frame rate mode : Constant
Frame rate : 24.000 FPS
Color space : YUV
Chroma subsampling : 4:2:0
Bit depth : 8 bits
Scan type : Progressive
Bits/(Pixel*Frame) : 0.163
Stream size : 1.05 GiB (90%)
Writing library : core 157 r2970 5493be8
Encoding settings : cabac=1 / ref=10 / deblock=1:0:0 / analyse=0x3:0x133 / me=umh / subme=10 / psy=1 / psy_rd=1.00:0.00 / mixed_ref=1 / me_range=24 / chroma_me=1 / trellis=2 / 8x8dct=1 / cqm=0 / deadzone=21,11 / fast_pskip=1 / chroma_qp_offset=-2 / threads=13 / lookahead_threads=2 / sliced_threads=0 / nr=0 / decimate=1 / interlaced=0 / bluray_compat=0 / constrained_intra=0 / bframes=8 / b_pyramid=2 / b_adapt=2 / b_bias=0 / direct=3 / weightb=1 / open_gop=0 / weightp=2 / keyint=250 / keyint_min=24 / scenecut=40 / intra_refresh=0 / rc_lookahead=60 / rc=crf / mbtree=1 / crf=18.0 / qcomp=0.60 / qpmin=0 / qpmax=69 / qpstep=4 / ip_ratio=1.40 / aq=1:1.00
Language : English
Default : Yes
Forced : No

Audio
ID : 2
Format : LC
Format/Info : Advanced Audio Codec Low Complexity
Codec ID : A_AAC-2
Duration : 1 h 27 min
Bit rate : 192 kb/s
Channel(s) : 2 channels
Channel layout : L R
Sampling rate : 48.0 kHz
Frame rate : 46.875 FPS (1024 SPF)
Compression mode : Lossy
Stream size : 121 MiB (10%)
Language : Ukrainian
Default : Yes
Forced : No
Скріншоти:


Джерело: Ме**го

Реліз створено: sergiyko


 Трекер:    Зареєстрований   

Завантажити / скачати мультфільм українською



відео для новачків



 Зареєстрований:   2020-01-02 18:16
 Розмір:   1.17 GB 
 Оцінка мультфільму:   9.5/10 (Голосів: 6)
   
Інші релізи
   Рятівники / Wan ou qi bing (2017) sergiyko.5  3 / 0   1.34 GB   2020-01-02 18:10 
   Рятівники / Wan ou qi bing (2017) 1080p sergiyko.5  2 / 0   3.26 GB   2020-01-02 16:38 
Ваш часовий пояс: GMT + 2 Години

Нова тема   Відповісти