Рятівники / Wan ou qi bing (2017)

Нові коментарі

Нова тема   Відповісти
Автор Повідомлення
sergiyko.5 
VIP


З нами з: 25.02.16
Востаннє: 26.10.20
Повідомлень: 3618

2020-01-02 16:43  
Рятівники / Wan ou qi bing (2017)


Рятівники / Wan ou qi bing (2017)

Жанр: дитячі, пригоди
Країна: Китай
Режисер: Шень Юй, Хуан Ян
Ролі озвучували: Ян Лічжень, Лі Е, Ван Хен, Лі Чуаньін

Сюжет:
Тигр і Зубастик відправляються назустріч неймовірним пригодам у віртуальному світі. Там їм доведеться використовувати кмітливість і підтримувати одне одного в скрутних ситуаціях. Завдяки цьому вони повернуться в реальність разом із господинею й будуть заслужено називатися "рятівниками".




Тривалість: 01:27:54
Якість:

Відео: кодек: розмір кадру: 720 х 304 бітрейт: 2000 кб/с
Аудіо: мова: українська переклад: багатоголосий закадровий кодек: 2.0 бітрейт: 192 кб/с
Про файл:
General
Complete name : D:\Documents\Torrents\MULTSER_2\Wan ou qi bingt.2017..avi
Format : AVI
Format/Info : Audio Video Interleave
File size : 1.34 GiB
Duration : 1 h 27 min
Overall bit rate : 2 178 kb/s
Movie name : Спасатели_2017_WEB-DLRip
Writing application : VirtualDubMod 1.5.10.3 | www.virtualdub-fr.org || (build 2550/release)
Writing library : VirtualDubMod build 2550/release
Copyright : порошков

Video
ID : 0
Format : MPEG-4 Visual
Format profile : Advanced [email protected]
Format settings : BVOP1 / Custom Matrix
Format settings, BVOP : 1
Format settings, QPel : No
Format settings, GMC : No warppoints
Format settings, Matrix : Custom
Codec ID :
Codec ID/Hint :
Duration : 1 h 27 min
Bit rate : 1 977 kb/s
Width : 720 pixels
Height : 304 pixels
Display aspect ratio : 2.35:1
Frame rate : 24.000 FPS
Color space : YUV
Chroma subsampling : 4:2:0
Bit depth : 8 bits
Scan type : Progressive
Compression mode : Lossy
Bits/(Pixel*Frame) : 0.376
Stream size : 1.21 GiB (91%)
Writing library : 73

Audio
ID : 1
Format : AC-3
Format/Info : Audio Coding 3
Commercial name : Dolby Digital
Codec ID : 2000
Duration : 1 h 27 min
Bit rate mode : Constant
Bit rate : 192 kb/s
Channel(s) : 2 channels
Channel layout : L R
Sampling rate : 48.0 kHz
Frame rate : 31.250 FPS (1536 SPF)
Compression mode : Lossy
Stream size : 121 MiB (9%)
Alignment : Split across interleaves
Interleave, duration : 42 ms (1.00 video frame)
Interleave, preload duratio : 500 ms
Service kind : Complete Main
Скріншоти:


Джерело: Ме**го

Реліз створено: sergiyko


 Трекер:    Зареєстрований   

Завантажити / скачати мультфільм українською



відео для новачків



 Зареєстрований:   2020-01-02 18:10
 Розмір:   1.34 GB 
 Оцінка мультфільму:   8/10 (Голосів: 1)
   
Інші релізи
   Рятівники / Wan ou qi bing (2017) AVC sergiyko.5  11 / 0   1.17 GB   2020-01-02 18:16 
   Рятівники / Wan ou qi bing (2017) 1080p sergiyko.5  4 / 0   3.26 GB   2020-01-02 16:38 
Ваш часовий пояс: GMT + 2 Години

Нова тема   Відповісти