Рятівники / Wan ou qi bing (2017) 1080p

Нові коментарі

Нова тема   Відповісти
Автор Повідомлення
sergiyko.5 
VIP


З нами з: 25.02.16
Востаннє: 22.02.20
Повідомлень: 2940

2020-01-02 16:38  
Рятівники / Wan ou qi bing (2017) 1080p


Рятівники / Wan ou qi bing (2017) 1080p

Жанр: дитячий, пригоди
Країна: Китай
Режисер: Шень Юй, Хуан Ян
Ролі озвучували: Ян Лічжень, Лі Е, Ван Хен, Лі Чуаньін

Сюжет:
Тигр і Зубастик відправляються назустріч неймовірним пригодам у віртуальному світі. Там їм доведеться використовувати кмітливість і підтримувати одне одного в скрутних ситуаціях. Завдяки цьому вони повернуться в реальність разом із господинею й будуть заслужено називатися "рятівниками".




Тривалість: 01:27:54
Якість:

Відео: кодек: розмір кадру: 1920 х 800 бітрейт: 5100 кб/с
Аудіо: мова: українська переклад: багатоголосий закадровий кодек: 2.0 бітрейт: 192 кб/с
Про файл:
General
Unique ID : 75326815017125200276773068534650104851 (0x38AB6AB7B58E3A1D5304C343ACA9EC13)
Complete name : D:\Documents\Torrents\MULTSER_2\Wan ou qi bing.2017.1080p..
Format :
Format version : Version 4
File size : 3.26 GiB
Duration : 1 h 27 min
Overall bit rate : 5 308 kb/s
Movie name : Wan ou qi bing 2017 by sergiyko
Encoded date : UTC 2020-01-02 14:30:54
Writing application : v41.0.0 ('Smarra') 64-bit
Writing library : libebml v1.3.9 + v1.5.2
Cover : Yes
Attachments : cover.jpeg

Video
ID : 1
Format : AVC
Format/Info : Advanced Video Codec
Format profile : [email protected]
Format settings : CABAC / 4 Ref Frames
Format settings, CABAC : Yes
Format settings, Reference fra : 4 frames
Codec ID : V_MPEG4/ISO/AVC
Duration : 1 h 27 min
Bit rate : 5 120 kb/s
Width : 1 920 pixels
Height : 800 pixels
Display aspect ratio : 2.40:1
Frame rate mode : Constant
Frame rate : 24.000 FPS
Color space : YUV
Chroma subsampling : 4:2:0
Bit depth : 8 bits
Scan type : Progressive
Bits/(Pixel*Frame) : 0.139
Stream size : 3.14 GiB (96%)
Writing library : core 148
Encoding settings : cabac=1 / ref=3 / deblock=1:0:0 / analyse=0x3:0x113 / me=hex / subme=7 / psy=1 / psy_rd=1.00:0.00 / mixed_ref=1 / me_range=16 / chroma_me=1 / trellis=1 / 8x8dct=1 / cqm=0 / deadzone=21,11 / fast_pskip=1 / chroma_qp_offset=-2 / threads=25 / lookahead_threads=4 / sliced_threads=0 / nr=0 / decimate=1 / interlaced=0 / bluray_compat=0 / constrained_intra=0 / bframes=6 / b_pyramid=2 / b_adapt=1 / b_bias=0 / direct=1 / weightb=1 / open_gop=0 / weightp=2 / keyint=48 / keyint_min=25 / scenecut=0 / intra_refresh=0 / rc_lookahead=40 / rc=2pass / mbtree=1 / bitrate=5120 / ratetol=1.0 / qcomp=0.60 / qpmin=0 / qpmax=69 / qpstep=4 / cplxblur=20.0 / qblur=0.5 / vbv_maxrate=7680 / vbv_bufsize=20480 / nal_hrd=none / filler=0 / ip_ratio=1.40 / aq=1:1.00
Language : English
Default : Yes
Forced : No

Audio
ID : 2
Format : LC
Format/Info : Advanced Audio Codec Low Complexity
Codec ID : A_AAC-2
Duration : 1 h 27 min
Bit rate : 192 kb/s
Channel(s) : 2 channels
Channel layout : L R
Sampling rate : 48.0 kHz
Frame rate : 46.875 FPS (1024 SPF)
Compression mode : Lossy
Stream size : 121 MiB (4%)
Language : Ukrainian
Default : Yes
Forced : No
Скріншоти:


Джерело: Ме**го

Реліз створено: sergiyko


 Трекер:    Зареєстрований   

Завантажити / скачати мультфільм українською



відео для новачків



 Зареєстрований:   2020-01-02 16:38
 Розмір:   3.26 GB 
 Оцінка мультфільму:   10/10 (Голосів: 2)
   
Інші релізи
   Рятівники / Wan ou qi bing (2017) AVC sergiyko.5  9 / 0   1.17 GB   2020-01-02 18:16 
   Рятівники / Wan ou qi bing (2017) sergiyko.5  2 / 0   1.34 GB   2020-01-02 18:10 
Ваш часовий пояс: GMT + 2 Години

Нова тема   Відповісти