Фіш і Чіп: Капосні друзі / Fish N Chips: The Movie (2013) AVC

Нові коментарі

Нова тема   Відповісти
Останній раз роздавалося Razi (2020-10-21)
Автор Повідомлення
sergiyko.5 
VIP


З нами з: 25.02.16
Востаннє: 22.10.20
Повідомлень: 3602

2020-01-02 16:25  
Фіш і Чіп: Капосні друзі / Fish N Chips: The Movie (2013) AVC


Фіш і Чіп: Капосні друзі / Fish N Chips: The Movie (2013) AVC

Жанр: дитячі, мультфільми
Країна: Канада
Режисер: Ден Креч
Ролі озвучували: Джон Легуізамо, Маріо Кантоне, Мартін Віллафана, Єн Башер, Джессіка Грінберг, Ден Петроніжевич, Джулі Лемьє, Шоун Мюньє, Роджер Ст. Деніс, Джордж Бьюза

Сюжет:
Маленьке й бешкетне кошеня на прізвисько Чіп та золота рибка Фіш ніяк не можуть зрозуміти, ким вони є — друзями чи ворогами. Винахідливий мешканець акваріума постійно створює іншому труднощі, тому попереду на героїв чекають захоплюючі пригоди…




Тривалість: 01:25:19
Якість:

Відео: кодек: розмір кадру: 1024 х 552 бітрейт: 1000 кб/с
Аудіо: мова: українська переклад: багатоголосий закадровий кодек: 2.0 бітрейт: 192 кб/с
Про файл:
General
Unique ID : 270012854427985839686553679482564261461 (0xCB22958C3EF4D15FDC2D40266B023655)
Complete name : \\Nas0257aa\video_2\MULT\Fish N Chips.The Movie.2013..
Format :
Format version : Version 4
File size : 715 MiB
Duration : 1 h 25 min
Overall bit rate : 1 171 kb/s
Movie name : Fish N Chips.The Movie.2013.1080p. by sergiyko
Writing application : Lavf58.27.103
Writing library : Lavf58.27.103
ErrorDetectionType : Per level 1

Video
ID : 1
Format : AVC
Format/Info : Advanced Video Codec
Format profile : [email protected]
Format settings : CABAC / 8 Ref Frames
Format settings, CABAC : Yes
Format settings, Reference : 8 frames
Codec ID : V_MPEG4/ISO/AVC
Duration : 1 h 25 min
Bit rate : 5 109 kb/s
Width : 1 024 pixels
Height : 552 pixels
Display aspect ratio : 1.85:1
Frame rate mode : Constant
Frame rate : 24.000 FPS
Color space : YUV
Chroma subsampling : 4:2:0
Bit depth : 8 bits
Scan type : Progressive
Bits/(Pixel*Frame) : 0.377
Stream size : 3.04 GiB
Writing library : core 157 r2970 5493be8
Encoding settings : cabac=1 / ref=8 / deblock=1:0:0 / analyse=0x3:0x133 / me=umh / subme=10 / psy=1 / psy_rd=1.00:0.00 / mixed_ref=1 / me_range=24 / chroma_me=1 / trellis=2 / 8x8dct=1 / cqm=0 / deadzone=21,11 / fast_pskip=1 / chroma_qp_offset=-2 / threads=17 / lookahead_threads=2 / sliced_threads=0 / nr=0 / decimate=1 / interlaced=0 / bluray_compat=0 / constrained_intra=0 / bframes=8 / b_pyramid=2 / b_adapt=2 / b_bias=0 / direct=3 / weightb=1 / open_gop=0 / weightp=2 / keyint=250 / keyint_min=24 / scenecut=40 / intra_refresh=0 / rc_lookahead=60 / rc=crf / mbtree=1 / crf=20.0 / qcomp=0.60 / qpmin=0 / qpmax=69 / qpstep=4 / ip_ratio=1.40 / aq=1:1.00
Language : English
Default : Yes
Forced : No

Audio
ID : 2
Format : LC
Format/Info : Advanced Audio Codec Low Complexity
Codec ID : A_AAC-2
Duration : 1 h 25 min
Bit rate : 192 kb/s
Channel(s) : 2 channels
Channel layout : L R
Sampling rate : 44.1 kHz
Frame rate : 43.066 FPS (1024 SPF)
Compression mode : Lossy
Stream size : 116 MiB (16%)
Language : Ukrainian
Default : Yes
Forced : No
Скріншоти:


Джерело: Ме**го

Реліз створено: sergiyko


 Трекер:    Зареєстрований   

Завантажити / скачати мультфільм українською



відео для новачків



 Зареєстрований:   2020-01-02 17:13
 Розмір:   715 MB 
 Оцінка мультфільму:   10/10 (Голосів: 2)
   
Інші релізи
Ваш часовий пояс: GMT + 2 Години

Нова тема   Відповісти