Фіш і Чіп: Капосні друзі / Fish N Chips: The Movie (2013) 1080p

Нові коментарі

Нова тема   Відповісти
Автор Повідомлення
sergiyko.5 
VIP


З нами з: 25.02.16
Востаннє: 22.02.20
Повідомлень: 2940

2020-01-02 15:25  
Фіш і Чіп: Капосні друзі / Fish N Chips: The Movie (2013) 1080p


Фіш і Чіп: Капосні друзі / Fish N Chips: The Movie (2013) 1080p

Жанр: дитячі, мультфільми
Країна: Канада
Режисер: Ден Креч
Ролі озвучували: Джон Легуізамо, Маріо Кантоне, Мартін Віллафана, Єн Башер, Джессіка Грінберг, Ден Петроніжевич, Джулі Лемьє, Шоун Мюньє, Роджер Ст. Деніс, Джордж Бьюза

Сюжет:
Маленьке й бешкетне кошеня на прізвисько Чіп та золота рибка Фіш ніяк не можуть зрозуміти, ким вони є — друзями чи ворогами. Винахідливий мешканець акваріума постійно створює іншому труднощі, тому попереду на героїв чекають захоплюючі пригоди…




Тривалість: 01:25:19
Якість:

Відео: кодек: розмір кадру: 1920 х 1036 бітрейт: 5100 кб/с
Аудіо: мова: українська переклад: багатоголосий закадровий кодек: 2.0 бітрейт: 192 кб/с
Про файл:
General
Unique ID : 13810129658558517971510599362705800166 (0xA63BBF623832B79DCF03E70440ABBE6)
Complete name : D:\Documents\Torrents\MULTSER_2\Fish N Chips.The Movie.2013.1080p..
Format :
Format version : Version 4
File size : 3.16 GiB
Duration : 1 h 25 min
Overall bit rate : 5 301 kb/s
Movie name : Fish N Chips.The Movie.2013.1080p. by sergiyko
Encoded date : UTC 2020-01-02 13:14:53
Writing application : v41.0.0 ('Smarra') 64-bit
Writing library : libebml v1.3.9 + v1.5.2
Cover : Yes
Attachments : cover.jpeg

Video
ID : 1
Format : AVC
Format/Info : Advanced Video Codec
Format profile : [email protected]
Format settings : CABAC / 4 Ref Frames
Format settings, CABAC : Yes
Format settings, Reference fra : 4 frames
Codec ID : V_MPEG4/ISO/AVC
Duration : 1 h 25 min
Bit rate : 5 120 kb/s
Width : 1 920 pixels
Height : 1 036 pixels
Display aspect ratio : 1.85:1
Frame rate mode : Constant
Frame rate : 24.000 FPS
Color space : YUV
Chroma subsampling : 4:2:0
Bit depth : 8 bits
Scan type : Progressive
Bits/(Pixel*Frame) : 0.107
Stream size : 3.04 GiB (96%)
Writing library : core 148
Encoding settings : cabac=1 / ref=3 / deblock=1:0:0 / analyse=0x3:0x113 / me=hex / subme=7 / psy=1 / psy_rd=1.00:0.00 / mixed_ref=1 / me_range=16 / chroma_me=1 / trellis=1 / 8x8dct=1 / cqm=0 / deadzone=21,11 / fast_pskip=1 / chroma_qp_offset=-2 / threads=32 / lookahead_threads=5 / sliced_threads=0 / nr=0 / decimate=1 / interlaced=0 / bluray_compat=0 / constrained_intra=0 / bframes=6 / b_pyramid=2 / b_adapt=1 / b_bias=0 / direct=1 / weightb=1 / open_gop=0 / weightp=2 / keyint=48 / keyint_min=25 / scenecut=0 / intra_refresh=0 / rc_lookahead=40 / rc=2pass / mbtree=1 / bitrate=5120 / ratetol=1.0 / qcomp=0.60 / qpmin=0 / qpmax=69 / qpstep=4 / cplxblur=20.0 / qblur=0.5 / vbv_maxrate=7680 / vbv_bufsize=20480 / nal_hrd=none / filler=0 / ip_ratio=1.40 / aq=1:1.00
Language : English
Default : Yes
Forced : No

Audio
ID : 2
Format : LC
Format/Info : Advanced Audio Codec Low Complexity
Codec ID : A_AAC-2
Duration : 1 h 25 min
Bit rate : 192 kb/s
Channel(s) : 2 channels
Channel layout : L R
Sampling rate : 44.1 kHz
Frame rate : 43.066 FPS (1024 SPF)
Compression mode : Lossy
Stream size : 116 MiB (4%)
Language : Ukrainian
Default : Yes
Forced : No
Скріншоти:


Джерело: Ме**го

Реліз створено: sergiyko


 Трекер:    Зареєстрований   

Завантажити / скачати мультфільм українською



відео для новачків



 Зареєстрований:   2020-01-02 15:25
 Розмір:   3.16 GB 
 Оцінка мультфільму:   7/10 (Голосів: 3)
   
Інші релізи
andros507 
VIP


З нами з: 15.09.10
Востаннє: 22.02.20
Повідомлень: 317

2020-01-02 19:31  
Невже навіть "вони" почали озвучувати мультфільми, а не тільки купувати озвучку?
sergiyko.5 
VIP


З нами з: 25.02.16
Востаннє: 22.02.20
Повідомлень: 2940

2020-01-02 20:09  
Де вони взяли звук, чи купили, чи замовили, я не знаю. Я написав звідки взято аудіо.
Ваш часовий пояс: GMT + 2 Години

Нова тема   Відповісти