Історія любові / Love Story (1970) AVC Ukr/Eng | Sub Eng

Нові коментарі

Нова тема   Відповісти
Автор Повідомлення
staf777 
Відео Гуртом - підтримка та поширення
Відео Гуртом - підтримка та поширення


З нами з: 16.11.16
Востаннє: 05.07.20
Повідомлень: 3811

2020-01-02 11:57  
Історія любові / Love Story (1970) AVC Ukr/Eng | Sub Eng



Жанр: романтика, драма
Країна: США



Кіностудія / кінокомпанія: Love Story Company, Paramount Pictures

Режисер: Артур Гіллер (Arthur Hiller)
Актори: Елі МакҐроу (Ali MacGraw), Раян Оніл (Ryan O'Neal), Джон Марлі (John Marley), Рей Мілланд (Ray Milland) та інші.

Сюжет:
Студент Кембриджа Олівер, нащадок багатого сімейства, закохується в студентку з бідної сім'ї. Спочатку Дженніфер відноситься до їх роману, як до легкого флірту, але потім любов повністю захоплює обох. Батьки Олівера всіляко намагаються перешкодити їм, але Олівер рве з ними і одружується на Дженніфер. Молоді щасливі, хоча і дуже обмежені в коштах, вона працює, він — продовжує навчання. Несподівано з'ясовується, що Дженніфер хвора на лейкемію і жити їй залишилося кілька місяців…


Тривалість: 01:40:17
Якість: AVC

Відео:
кодек:
розмір кадру: 1024x576
бітрейт: 2215 кб/с
------------
Аудіо # 1:
мова: українська
переклад: двоголосий закадровий
кодек: 2.0
бітрейт: 192 кб/с

Аудіо # 2:
мова: англійська
переклад: оригінал
кодек: 5.1
бітрейт: 448 кб/с

Субтитри:
англійська (завантажити)
тип: програмні (м'які)
формат: *.srt


Про український аудіоряд:
Українською мовою фільм озвучено студією
Інфо про озвучення та доріжку

Текст читали актори: Ігор Волков та один жіночий


Запис звуку з трансляції телеканалу "1+1" (VHS).



MI
General
Unique ID : 143404268840785871844445054632131567564 (0x6BE2A85548E85140EC477ECFB6E81FCC)
Complete name : C:\Users\staf777\Videos\Love Story (1970) AVC [UKR_ENG] [Hurtom].
Format :
Format version : Version 4
File size : 2.00 GiB
Duration : 1 h 40 min
Overall bit rate : 2 857 kb/s
Movie name : Історія любові / / Love Story (1970) AVC [UKR_ENG] [Hurtom]
Encoded date : UTC 2020-01-02 08:35:33
Writing application : v40.0.0 ('Old Town Road + Pony') 64-bit
Writing library : libebml v1.3.9 + v1.5.2
Cover : Yes
Attachments : cover.jpg

Video
ID : 1
Format : AVC
Format/Info : Advanced Video Codec
Format profile : [email protected]
Format settings : CABAC / 10 Ref Frames
Format settings, CABAC : Yes
Format settings, Reference : 10 frames
Codec ID : V_MPEG4/ISO/AVC
Duration : 1 h 40 min
Bit rate : 2 215 kb/s
Width : 1 024 pixels
Height : 576 pixels
Display aspect ratio : 16:9
Frame rate mode : Constant
Frame rate : 23.976 (24000/1001) FPS
Color space : YUV
Chroma subsampling : 4:2:0
Bit depth : 8 bits
Scan type : Progressive
Bits/(Pixel*Frame) : 0.157
Stream size : 1.55 GiB (78%)
Title : sashock86
Writing library : core 142 r2431 ac76440
Encoding settings : cabac=1 / ref=10 / deblock=1:-3:-3 / analyse=0x3:0x113 / me=umh / subme=11 / psy=1 / psy_rd=1.90:0.05 / mixed_ref=1 / me_range=32 / chroma_me=1 / trellis=2 / 8x8dct=1 / cqm=0 / deadzone=21,11 / fast_pskip=0 / chroma_qp_offset=-5 / threads=6 / lookahead_threads=1 / sliced_threads=0 / nr=0 / decimate=1 / interlaced=0 / bluray_compat=0 / constrained_intra=0 / bframes=10 / b_pyramid=2 / b_adapt=2 / b_bias=0 / direct=1 / weightb=1 / open_gop=0 / weightp=2 / keyint=240 / keyint_min=23 / scenecut=40 / intra_refresh=0 / rc_lookahead=40 / rc=2pass / mbtree=0 / bitrate=2215 / ratetol=1.0 / qcomp=0.60 / qpmin=0 / qpmax=69 / qpstep=4 / cplxblur=20.0 / qblur=0.5 / vbv_maxrate=50000 / vbv_bufsize=62500 / nal_hrd=none / filler=0 / ip_ratio=1.40 / pb_ratio=1.30 / aq=2:1.00
Language : English
Default : Yes
Forced : No

Audio #1
ID : 2
Format : AC-3
Format/Info : Audio Coding 3
Commercial name : Dolby Digital
Codec ID : A_AC3
Duration : 1 h 40 min
Bit rate mode : Constant
Bit rate : 192 kb/s
Channel(s) : 2 channels
Channel layout : L R
Sampling rate : 48.0 kHz
Frame rate : 31.250 FPS (1536 SPF)
Compression mode : Lossy
Stream size : 138 MiB (7%)
Language : Ukrainian
Service kind : Complete Main
Default : Yes
Forced : Yes

Audio #2
ID : 3
Format : AC-3
Format/Info : Audio Coding 3
Commercial name : Dolby Digital
Codec ID : A_AC3
Duration : 1 h 40 min
Bit rate mode : Constant
Bit rate : 448 kb/s
Channel(s) : 6 channels
Channel layout : L R C LFE Ls Rs
Sampling rate : 48.0 kHz
Frame rate : 31.250 FPS (1536 SPF)
Compression mode : Lossy
Stream size : 321 MiB (16%)
Language : English
Service kind : Complete Main
Default : No
Forced : No

Text
ID : 4
Format : UTF-8
Codec ID : S_TEXT/UTF8
Codec ID/Info : UTF-8 Plain Text
Duration : 1 h 35 min
Bit rate : 54 b/s
Count of elements : 998
Stream size : 37.9 KiB (0%)
Language : English
Default : No
Forced : No

Menu
00:00:00.000 : en:00:00:00.000
00:03:49.354 : en:00:03:49.354
00:08:58.746 : en:00:08:58.746
00:16:34.952 : en:00:16:34.952
00:23:07.469 : en:00:23:07.469
00:29:19.591 : en:00:29:19.591
00:34:29.984 : en:00:34:29.984
00:38:55.291 : en:00:38:55.291
00:43:05.040 : en:00:43:05.040
00:49:09.738 : en:00:49:09.738
00:55:18.440 : en:00:55:18.440
01:04:46.007 : en:01:04:46.007
01:08:33.984 : en:01:08:33.984
01:13:30.405 : en:01:13:30.405
01:19:55.207 : en:01:19:55.207
01:24:16.259 : en:01:24:16.259
01:28:57.832 : en:01:28:57.832
01:35:22.425 : en:01:35:22.425



Робота зі звуком robotron005
Джерело: &
Особиста оцінка: 8 - мені сподобалося
Історія любові / Love Story (1970) AVC Ukr/Eng | Sub Eng Історія любові / Love Story (1970) AVC Ukr/Eng | Sub Eng




ЗАЛИШАЙТЕСЬ ЯКОМОГА ДОВШЕ НА РОЗДАЧІ!

СКАЧАВ САМ - ДАЙ СКАЧАТИ ІНШИМ


Срібний реліз (на рейтинг впливає 50% завантаженого)
 Трекер:    Зареєстрований   

Завантажити / скачати фільм українською



відео для новачків



 Зареєстрований:   2020-01-02 12:21
 Розмір:   2 GB 
 Оцінка фільму:   9.2/10 (Голосів: 13)
   
Інші релізи
   Історія любові / Love Story (1970) Ukr/Eng | Sub Eng robotron005  7 / 0   1.86 GB   2015-07-25 22:29 
bot 
робот


З нами з: 30.09.07
Востаннє: 26.05.05
Повідомлень: 24973

2020-01-02 12:21  
Тему перенесено з Анонси релізів до форуму Фільми


staf777

Winged 
Свій


З нами з: 11.10.09
Востаннє: 29.06.20
Повідомлень: 66

2020-01-03 00:39  
Дуже сильний фільм.
Можливо найкращий фільм 20-го сторічча.

Аркадій Дзиґа 
VIP


З нами з: 09.10.14
Востаннє: 05.07.20
Повідомлень: 422

2020-05-16 14:56  
Winged
Не те слово!!

Ваш часовий пояс: GMT + 2 Години

Нова тема   Відповісти