У шоу тільки дівчата (У шоу лишень дівчата) / Connie and Carla (2004) 1080p 2xUkr/Eng | Sub Eng

Нові коментарі

Нова тема   Відповісти
Автор Повідомлення
Anonymous 







2020-01-02 00:49  
У шоу тільки дівчата (У шоу лишень дівчата) / Connie and Carla (2004) 1080p 2xUkr/Eng | Sub Eng

У шоу тільки дівчата (У шоу лишень дівчата) / Connie and Carla (2004) 1080p 2xUkr/Eng | Sub Eng


Жанр: комедія, бойовик, музичний
Країна: США



Кінокомпанія: Universal Pictures, Spyglass Entertainment, CCLA Productions
Режисер: Майкл Лембек / Michael Lembeck
Актори: Ніа Вардалос / Nia Vardalos, Девід Духовни / David Duchovny, Тоні Коллетт / Toni Collette, Стівен Спінелла / Stephen Spinella, Алек Мапа / Alec Mapa, Кріс Лоґан / Christopher Logan, Роберт Кайзер / Robert Kaiser, Іен Ґомес / Ian Gomez, Нік Сендоу / Nick Sandow, Деш Майок / Dash Mihok та інші

Сюжет:
Не зовсім щасливі артистки вар'єте Конні і Карла зовсім випадково стали мимовільними свідками вбивства, яке було скоєне мафією. Тепер подруги повинні тікати з рідного міста Чикаго і ховатися в чужому Лос-Анджелесі, де вони влаштувалися працювати в один гей-клуб, видаючи себе за геїв в жіночих образах. Шоу подруг швидко стає популярним, і приховувати свою таємницю стає все складніше. Ну, а головних героїнь шукає не тільки мафія, але й їхні колишні хлопці - Ел і Майкі. У той час, Конні закохується в Джеффа - натурала, який намагається налагодити стосунки зі своїм рідним братом Робертом.


Тривалість: 01:37:47
Якість: 1080p
Відео:
кодек:
розмір кадру: 1920х1080
бітрейт: 8803 кб/с

Аудіо # 1:
мова: українська
переклад: двоголосий закадровий
кодек: 2.0
бітрейт: 192 кб/с

Аудіо # 2:
мова: українська
переклад: багатоголосий закадровий
кодек: 2.0
бітрейт: 192 кб/с

Аудіо # 3:
мова: англійська
переклад: оригінал
кодек: E- 5.1
бітрейт: 640 кб/с

Субтитри:
мова: англійська
тип: програмні (м'які)
формат: *.srt
Info
General
Unique ID : 245825971575335823233026953741552296823 (0xB8F05C276B8974B2A231EBB893FBA377)
Complete name : H:\Toloka\2020\Connie and Carla (2004) 1080p.
Format :
Format version : Version 4
File size : 6.85 GiB
Duration : 1 h 37 min
Overall bit rate mode : Variable
Overall bit rate : 10.0 Mb/s
Encoded date : UTC 2020-01-01 21:31:58
Writing application : v6.1.0 ('Old Devil') built on Mar 4 2013 09:10:42
Writing library : libebml v1.3.0 + v1.4.0

Video
ID : 1
Format : AVC
Format/Info : Advanced Video Codec
Format profile : [email protected]
Format settings : CABAC / 4 Ref Frames
Format settings, CABAC : Yes
Format settings, RefFrames : 4 frames
Codec ID : V_MPEG4/ISO/AVC
Duration : 1 h 37 min
Bit rate mode : Variable
Bit rate : 8 803 kb/s
Maximum bit rate : 15.0 Mb/s
Width : 1 920 pixels
Height : 1 080 pixels
Display aspect ratio : 16:9
Frame rate mode : Constant
Frame rate : 23.976 (24000/1001) FPS
Color space : YUV
Chroma subsampling : 4:2:0
Bit depth : 8 bits
Scan type : Progressive
Bits/(Pixel*Frame) : 0.177
Stream size : 6.01 GiB (88%)
Default : Yes
Forced : No
Color range : Limited
Color primaries : BT.709
Transfer characteristics : BT.709
Matrix coefficients : BT.709
Statistics Tags Issue : v13.0.0 ('The Juggler') 64bit 2017-12-02 05:13:00 / v6.1.0 ('Old Devil') built on Mar 4 2013 09:10:42 2020-01-01 21:31:58
FromStats_BitRate : 9000841
FromStats_Duration : 01:37:47.278000000
FromStats_FrameCount : 140674
FromStats_StreamSize : 6601304554

Audio #1
ID : 2
Format : AC-3
Format/Info : Audio Coding 3
Commercial name : Dolby Digital
Codec ID : A_AC3
Duration : 1 h 37 min
Bit rate mode : Constant
Bit rate : 192 kb/s
Channel(s) : 2 channels
Channel layout : L R
Sampling rate : 48.0 kHz
Frame rate : 31.250 FPS (1536 SPF)
Bit depth : 16 bits
Compression mode : Lossy
Stream size : 134 MiB (2%)
Title : UKR (1+1)
Language : Ukrainian
Service kind : Complete Main
Default : Yes
Forced : Yes

Audio #2
ID : 3
Format : AC-3
Format/Info : Audio Coding 3
Commercial name : Dolby Digital
Codec ID : A_AC3
Duration : 1 h 37 min
Bit rate mode : Constant
Bit rate : 192 kb/s
Channel(s) : 2 channels
Channel layout : L R
Sampling rate : 48.0 kHz
Frame rate : 31.250 FPS (1536 SPF)
Bit depth : 16 bits
Compression mode : Lossy
Stream size : 134 MiB (2%)
Title : UKR (Новий)
Language : Ukrainian
Service kind : Complete Main
Default : No
Forced : No

Audio #3
ID : 4
Format : E-AC-3
Format/Info : Enhanced AC-3
Commercial name : Dolby Digital Plus
Codec ID : A_EAC3
Duration : 1 h 37 min
Bit rate mode : Constant
Bit rate : 640 kb/s
Channel(s) : 6 channels
Channel layout : L R C LFE Ls Rs
Sampling rate : 48.0 kHz
Frame rate : 31.250 FPS (1536 SPF)
Compression mode : Lossy
Stream size : 448 MiB (6%)
Language : English
Service kind : Complete Main
Default : No
Forced : No
Statistics Tags Issue : v13.0.0 ('The Juggler') 64bit 2017-12-02 05:13:00 / v6.1.0 ('Old Devil') built on Mar 4 2013 09:10:42 2020-01-01 21:31:58
FromStats_BitRate : 640000
FromStats_Duration : 01:37:47.232000000
FromStats_FrameCount : 183351
FromStats_StreamSize : 469378560

Text
ID : 5
Format : UTF-8
Codec ID : S_TEXT/UTF8
Codec ID/Info : UTF-8 Plain Text
Language : English
Default : No
Forced : No
Statistics Tags Issue : v13.0.0 ('The Juggler') 64bit 2017-12-02 05:13:00 / v6.1.0 ('Old Devil') built on Mar 4 2013 09:10:42 2020-01-01 21:31:58
FromStats_BitRate : 77
FromStats_Duration : 01:32:33.781000000
FromStats_FrameCount : 1575
FromStats_StreamSize : 53504
Скріншоти






За українські доріжки подяка п.: servus12, dvorsky, taraskill1
Особиста подяка пану denixx за надану матеріальну допомогу на підтримку цього і майбутніх релізів.
Джерело:


Срібний реліз (на рейтинг впливає 50% завантаженого)
 Трекер:    Зареєстрований   

Завантажити / скачати фільм українською



відео для новачків



 Зареєстрований:   2020-01-02 00:49
 Розмір:   6.85 GB 
 Оцінка фільму:   10/10 (Голосів: 3)
   
Ваш часовий пояс: GMT + 2 Години

Нова тема   Відповісти