Соляна принцеса / Die Salzprinzessin (2015) 720p Ukr/Ger

Нові коментарі

Нова тема   Відповісти
Автор Повідомлення
Anonymous 







2020-01-01 23:22  
Соляна принцеса / Die Salzprinzessin (2015) 720p Ukr/Ger

Соляна принцеса / Die Salzprinzessin (2015) 720p Ukr/Ger
DVD



Жанр: сімейний, казка
Країна: Німеччина



Кінокомпанія: Askania Media Filmproduktion GmbH
Режисер: Золтан Спіранделлі
Актори: Леоні Шарлотта Бриль, Леонард Лансінк, Елвіс Клаузен, Софія фон Кессель, Леннарт Маттіс, Олександра Мартіні, Свен Гeргер, мірилом-Саскія Пулман, Саймон Павловський, Бен Артман

Сюжет:
Сюжет казки розповідає про далеке королівство, яким править старий монарх. Він розуміє, що настав час знайти наступника трону. У короля є три доньки: старші – вередливі та самозакохані, а молодша – ніжна та далека від світського життя. Старші доньки обожнюють влаштовувати пишні бали, а от молодша обожнює прогулянки на природі.

Після однієї сімейної вечері король оголошує, що корона належатиме тій доньці, яка правильно відповість на одне його питання. Відповідь молодшої доньки настільки розлютила короля, що він прогнав її з палацу. Що відповіла донька? Та чи знайде вона своє щастя?


Тривалість: 00:58:35
Якість:
Відео:
кодек:
розмір кадру: 1280 х 720
бітрейт: 5198 кб/с

Аудіо # 1:
мова: українська
переклад: професійний дубльований
кодек: 2.0
бітрейт: 192 кб/с

Аудіо # 2:
мова: німецька
переклад: оригінал
кодек: 2.0
бітрейт: 192 кб/с

Джерело озвучення:
Info
Код:
General
Unique ID                                : 33580432183580861671706651207685092535 (0x19435B2214B1D26427D20FD7A167B4B7)
Complete name                            : Die Salzprinzessin (2015) 720p [Ukr_Ger] [Hurtom].
Format                                   :
Format version                           : Version 4
File size                                : 2.29 GiB
Duration                                 : 58 min 35 s
Overall bit rate                         : 5 584 kb/s
Movie name                               : Соляна принцеса (2015)
Encoded date                             : UTC 2020-01-01 19:44:10
Writing application                      : v30.1.0 ('Forever And More') 64-bit
Writing library                          : libebml v1.3.6 + v1.4.9
Cover                                    : Yes
Attachments                              : cover.jpg

Video
ID                                       : 1
Format                                   : AVC
Format/Info                              : Advanced Video Codec
Format profile                           : [email protected]
Format settings                          : CABAC / 5 Ref Frames
Format settings, CABAC                   : Yes
Format settings, ReFrames                : 5 frames
Codec ID                                 : V_MPEG4/ISO/AVC
Duration                                 : 58 min 35 s
Bit rate                                 : 5 198 kb/s
Width                                    : 1 280 pixels
Height                                   : 720 pixels
Display aspect ratio                     : 16:9
Frame rate mode                          : Constant
Frame rate                               : 25.000 FPS
Color space                              : YUV
Chroma subsampling                       : 4:2:0
Bit depth                                : 8 bits
Scan type                                : Progressive
Bits/(Pixel*Frame)                       : 0.226
Stream size                              : 2.13 GiB (93%)
Writing library                          : core 146 r2538 121396c
Encoding settings                        : cabac=1 / ref=5 / deblock=1:-1:-1 / analyse=0x3:0x113 / me=umh / subme=8 / psy=1 / psy_rd=1.00:0.15 / mixed_ref=1 / me_range=16 / chroma_me=1 / trellis=1 / 8x8dct=1 / cqm=0 / deadzone=21,11 / fast_pskip=1 / chroma_qp_offset=-3 / threads=12 / lookahead_threads=2 / sliced_threads=0 / nr=0 / decimate=1 / interlaced=0 / bluray_compat=0 / constrained_intra=0 / bframes=3 / b_pyramid=2 / b_adapt=2 / b_bias=0 / direct=3 / weightb=1 / open_gop=0 / weightp=2 / keyint=250 / keyint_min=24 / scenecut=40 / intra_refresh=0 / rc_lookahead=50 / rc=crf / mbtree=1 / crf=18.0 / qcomp=0.60 / qpmin=0 / qpmax=69 / qpstep=4 / ip_ratio=1.40 / aq=1:1.00
Language                                 : German
Default                                  : Yes
Forced                                   : No

Audio #1
ID                                       : 2
Format                                   : AC-3
Format/Info                              : Audio Coding 3
Commercial name                          : Dolby Digital
Codec ID                                 : A_AC3
Duration                                 : 58 min 35 s
Bit rate mode                            : Constant
Bit rate                                 : 192 kb/s
Channel(s)                               : 2 channels
Channel layout                           : L R
Sampling rate                            : 48.0 kHz
Frame rate                               : 31.250 FPS (1536 SPF)
Bit depth                                : 16 bits
Compression mode                         : Lossy
Stream size                              : 80.5 MiB (3%)
Language                                 : Ukrainian
Service kind                             : Complete Main
Default                                  : Yes
Forced                                   : Yes

Audio #2
ID                                       : 3
Format                                   : AC-3
Format/Info                              : Audio Coding 3
Commercial name                          : Dolby Digital
Codec ID                                 : A_AC3
Duration                                 : 58 min 35 s
Bit rate mode                            : Constant
Bit rate                                 : 192 kb/s
Channel(s)                               : 2 channels
Channel layout                           : L R
Sampling rate                            : 48.0 kHz
Frame rate                               : 31.250 FPS (1536 SPF)
Bit depth                                : 16 bits
Compression mode                         : Lossy
Stream size                              : 80.5 MiB (3%)
Language                                 : German
Service kind                             : Complete Main
Default                                  : No
Forced                                   : No

Скріншоти





Джерело:


 Трекер:    Зареєстрований   

Завантажити / скачати фільм українською



відео для новачків



 Зареєстрований:   2020-01-01 23:22
 Розмір:   2.29 GB 
 Оцінка фільму:   10/10 (Голосів: 3)
   
Інші релізи
   Соляна принцеса / Die Salzprinzessin (2015) 1080p Ukr/Ger ssTAss  2 / 0   2.81 GB   2020-09-16 15:39 
   Соляна принцеса / Die Salzprinzessin (2015) Ukr/Ger Arsenfpu  2 / 0   925 MB   2018-08-18 16:12 
Ваш часовий пояс: GMT + 2 Години

Нова тема   Відповісти