Зоряна карта / Maps to the Stars (2014) 1080p Eng | sub Ukr/Eng

Нові коментарі

Нова тема   Відповісти
Автор Повідомлення
Anonymous 







2019-12-31 17:53  
Зоряна карта / Maps to the Stars (2014) 1080p Eng | sub Ukr/Eng

Зоряна карта / Maps to the Stars (2014) 1080p Eng | sub Ukr/Eng
Український офіційний постер:
Зоряна карта / Maps to the Stars (2014) 1080p Eng | sub Ukr/Eng
Blu-ray



Жанр: комедія, драма
Країна: США, Канада, Німеччина, Франція



Кінокомпанія: Prospero Pictures, Sentient Entertainment, SBS Productions
Режисер: Девід Кроненберг
Актори: Джуліанна Мур, Роберт Паттінсон, Міа Васиковська, Кері Фішер, Джон К’юсак, Олівія Вільямс, Сара Гадон, Ніам Уїлсон, Джейн Хейтмейер, Емілія МакКарті

Сюжет:
Місце дії — два голлівудських будинки. В одному живе старіюча актриса, яка сподівається зіграти роль власної давно загиблої матері - легенди чорно-білого кіно. Інший маєток — резиденція надуспішного психотерапевта, його дружини та їхнього сина — 13-річного мільйонера, наркомана і зірки. В обидва будинки проникає дівчина з Флориди, яка подружилася в твіттері з Керрі Фішер і сподівається за її допомогою підкорити Лос-Анджелес.


Тривалість: 01:47:17
Якість:
Відео:
кодек:
розмір кадру: 1920 х 1040
бітрейт: 8700 кб/с

Аудіо:
мова: англійська
переклад: оригінал
кодек: 5.1
бітрейт: 1509 кб/с

Субтитри:
мова: українська | Megogo
тип: програмні (м'які)
формат: *.srt

Субтитри:
мова: англійська
тип: програмні (м'які)
формат: *.srt
Info
Код:
General
Unique ID                                : 59924879129678565831815409244167301143 (0x2D151CA653F5A8F713710566EBE56817)
Complete name                            : Maps to the Stars (2014) 1080p [Eng_sub_Ukr] [Hurtom].
Format                                   :
Format version                           : Version 4
File size                                : 7.65 GiB
Duration                                 : 1 h 47 min
Overall bit rate                         : 10.2 Mb/s
Movie name                               : Зоряна карта (2014)
Encoded date                             : UTC 2019-12-31 13:43:07
Writing application                      : v37.0.0 ('Leave It') 32-bit
Writing library                          : libebml v1.3.9 + v1.5.2
Cover                                    : Yes
Attachments                              : cover.jpg

Video
ID                                       : 1
Format                                   : AVC
Format/Info                              : Advanced Video Codec
Format profile                           : [email protected]
Format settings                          : CABAC / 4 Ref Frames
Format settings, CABAC                   : Yes
Format settings, ReFrames                : 4 frames
Codec ID                                 : V_MPEG4/ISO/AVC
Duration                                 : 1 h 47 min
Bit rate                                 : 8 700 kb/s
Width                                    : 1 920 pixels
Height                                   : 1 040 pixels
Display aspect ratio                     : 1.85:1
Frame rate mode                          : Constant
Frame rate                               : 25.000 FPS
Color space                              : YUV
Chroma subsampling                       : 4:2:0
Bit depth                                : 8 bits
Scan type                                : Progressive
Bits/(Pixel*Frame)                       : 0.174
Stream size                              : 6.52 GiB (85%)
Writing library                          : core 142 r2479 dd79a61
Encoding settings                        : cabac=1 / ref=4 / deblock=1:-3:-3 / analyse=0x3:0x113 / me=umh / subme=8 / psy=1 / psy_rd=1.00:0.00 / mixed_ref=1 / me_range=16 / chroma_me=1 / trellis=1 / 8x8dct=1 / cqm=0 / deadzone=21,11 / fast_pskip=1 / chroma_qp_offset=-2 / threads=12 / lookahead_threads=2 / sliced_threads=0 / nr=0 / decimate=1 / interlaced=0 / bluray_compat=0 / constrained_intra=0 / bframes=3 / b_pyramid=2 / b_adapt=2 / b_bias=0 / direct=3 / weightb=1 / open_gop=0 / weightp=2 / keyint=250 / keyint_min=25 / scenecut=40 / intra_refresh=0 / rc_lookahead=50 / rc=2pass / mbtree=1 / bitrate=8700 / ratetol=1.0 / qcomp=0.60 / qpmin=0 / qpmax=69 / qpstep=4 / cplxblur=20.0 / qblur=0.5 / ip_ratio=1.40 / aq=1:1.00
Language                                 : English
Default                                  : Yes
Forced                                   : No

Audio
ID                                       : 2
Format                                   :
Format/Info                              : Digital Theater Systems
Codec ID                                 : A_DTS
Duration                                 : 1 h 47 min
Bit rate mode                            : Constant
Bit rate                                 : 1 509 kb/s
Channel(s)                               : 6 channels
Channel layout                           : C L R Ls Rs LFE
Sampling rate                            : 48.0 kHz
Frame rate                               : 93.750 FPS (512 SPF)
Bit depth                                : 24 bits
Compression mode                         : Lossy
Stream size                              : 1.13 GiB (15%)
Language                                 : English
Default                                  : Yes
Forced                                   : No

Text #1
ID                                       : 3
Format                                   : UTF-8
Codec ID                                 : S_TEXT/UTF8
Codec ID/Info                            : UTF-8 Plain Text
Duration                                 : 1 h 40 min
Bit rate                                 : 119 b/s
Count of elements                        : 1759
Stream size                              : 88.2 KiB (0%)
Language                                 : Ukrainian
Default                                  : Yes
Forced                                   : Yes

Text #2
ID                                       : 4
Format                                   : UTF-8
Codec ID                                 : S_TEXT/UTF8
Codec ID/Info                            : UTF-8 Plain Text
Duration                                 : 1 h 39 min
Bit rate                                 : 69 b/s
Count of elements                        : 1804
Stream size                              : 50.7 KiB (0%)
Language                                 : English
Default                                  : No
Forced                                   : No

Menu
00:00:00.000                             : en:00:00:00.000
00:08:32.320                             : en:00:08:32.320
00:20:37.800                             : en:00:20:37.800
00:29:15.080                             : en:00:29:15.080
00:40:17.520                             : en:00:40:17.520
00:50:31.360                             : en:00:50:31.360
00:59:57.000                             : en:00:59:57.000
01:08:47.600                             : en:01:08:47.600
01:19:54.640                             : en:01:19:54.640
01:27:56.640                             : en:01:27:56.640
01:35:10.680                             : en:01:35:10.680
01:41:22.320                             : en:01:41:22.320
Скріншоти





Джерело:


 Трекер:    Зареєстрований   

Завантажити / скачати фільм українською



відео для новачків



 Зареєстрований:   2019-12-31 17:53
 Розмір:   7.65 GB 
 Оцінка фільму:   7/10 (Голосів: 3)
   
Anonymous 







2019-12-31 17:55  
Цитата:
мова: українська | Megogo

ймовірно, переклад виконано з кацапської, але більш-менш якісно
явних ляпів не помітив (хоча переглянув вибірково)

pankos 
Частий відвідувач


З нами з: 16.01.11
Востаннє: 29.11.20
Повідомлень: 42

2020-01-03 17:47  
Ох і гидота! Давно бачив, але до сих пір плююсь!
Ваш часовий пояс: GMT + 2 Години

Нова тема   Відповісти