Комашки: Пригода в Долині Мурах (Minuscule: Valley of the Lost Ants) / Minuscule - La vallée des fourmis perdues (2013) 1080p Ukr/Fre | Sub Ukr

Нові коментарі

Нова тема   Відповісти
Автор Повідомлення
Anonymous 







2019-12-31 14:38  
Комашки: Пригода в Долині Мурах (Minuscule: Valley of the Lost Ants) / Minuscule - La vallée des fourmis perdues (2013) 1080p Ukr/Fre | Sub Ukr

Комашки: Пригода в Долині Мурах (Minuscule: Valley of the Lost Ants) / Minuscule - La vallée des fourmis perdues (2013) 1080p Ukr/Fre | Sub Ukr


Жанр: анімація, пригодницький, казка
Країна: Франція, Бельгія



Кінокомпанія: Futurikon, Entre Chien et Loup, Futurikon Production II, Nozon
Режисер: Томас Забо (Thomas Szabo) та Гелен Жиро (Hélène Giraud)
Актори: Герве Лаванд'єр (Hervé Lavandier)

Сюжет:
Група чорних мурашок знаходить на галявині справжній скарб - коробочку цукру, а в ній - юного бедрика. Він швидко стає другом їхнього очільника й допомагає безпечно доправити знахідку до мурашника. Та випробування лише починаються - на дім чорних мурашок нападають агресивні й заздрісні червоні сусіди.


Тривалість: 01:28:27
Якість: 1080p
Відео:
кодек:
розмір кадру: 1920x804
бітрейт: 10600 кб/с

Аудіо # 1:
мова: українська
переклад: одноголосий закадровий
кодек: 2.0
бітрейт: 192 кб/с
Примітка: діалоги відсутні. Озвучено вступ і титри

Аудіо # 2:
мова: французька
переклад: оригінал
кодек: 5.1
бітрейт: 1536 кб/с

Субтитри:
мова: українська
тип: програмні (м'які)
формат: *.srt
Info
General
Unique ID : 214571956342594954842510157163286607643 (0xA16D0E3B728934DEB9473DB36279B71B)
Complete name : H:\Toloka\2019\Minuscule. Valley of the Lost Ants (2013) 1080p.
Format :
Format version : Version 4
File size : 7.72 GiB
Duration : 1 h 28 min
Overall bit rate : 12.5 Mb/s
Encoded date : UTC 2019-12-31 12:32:50
Writing application : v6.1.0 ('Old Devil') built on Mar 4 2013 09:10:42
Writing library : libebml v1.3.0 + v1.4.0

Video
ID : 1
Format : AVC
Format/Info : Advanced Video Codec
Format profile : [email protected]
Format settings : CABAC / 5 Ref Frames
Format settings, CABAC : Yes
Format settings, RefFrames : 5 frames
Codec ID : V_MPEG4/ISO/AVC
Duration : 1 h 28 min
Bit rate : 10.5 Mb/s
Width : 1 920 pixels
Height : 804 pixels
Display aspect ratio : 2.40:1
Frame rate mode : Constant
Frame rate : 23.976 (24000/1001) FPS
Color space : YUV
Chroma subsampling : 4:2:0
Bit depth : 8 bits
Scan type : Progressive
Bits/(Pixel*Frame) : 0.285
Stream size : 6.51 GiB (84%)
Writing library : core 142 r2479kMod dd79a61
Encoding settings : cabac=1 / ref=5 / deblock=1:-3:-3 / analyse=0x3:0x133 / me=umh / subme=10 / psy=1 / fade_compensate=0.00 / psy_rd=1.00:0.00 / mixed_ref=1 / me_range=24 / chroma_me=1 / trellis=2 / 8x8dct=1 / cqm=0 / deadzone=21,11 / fast_pskip=0 / chroma_qp_offset=-2 / threads=6 / lookahead_threads=1 / sliced_threads=0 / nr=0 / decimate=0 / interlaced=0 / bluray_compat=0 / constrained_intra=0 / fgo=0 / bframes=11 / b_pyramid=2 / b_adapt=2 / b_bias=0 / direct=3 / weightb=1 / open_gop=0 / weightp=2 / keyint=250 / keyint_min=23 / scenecut=40 / intra_refresh=0 / rc=crf / mbtree=0 / crf=14.5000 / qcomp=0.60 / qpmin=0 / qpmax=69 / qpstep=4 / ip_ratio=1.30 / pb_ratio=1.20 / aq=2:0.60 / zones=767,1400,crf=14/10427,10520,crf=14/12551,12672,crf=14/12770,17066,crf=14/17562,18062,crf=14/20752,21201,crf=14/21757,21850,crf=14/22807,23163,crf=14/23343,23511,crf=14/23774,23878,crf=14/31340,31453,crf=14/31989,32081,crf=14/32313,32496,crf=14/32742,32883,crf=14/33654,33836,crf=14/36163,36335,crf=14/36596,36690,crf=14/36798,36968,crf=14/37623,37770,crf=14/38900,38970,crf=14/39586,39692,crf=14/40181,41993,crf=14/42582,42674,crf=14/4358,44717,crf=14/50759,52655,crf=14/57381,60624,crf=14/62616,63775,crf=14/64982,66209,crf=14/67719,67900,crf=14/68152,69555,crf=14/70038,70211,crf=14/74373,76930,crf=14/88240,95180,crf=14/96817,99640,crf=14/105792,111999,crf=14/113865,113890,crf=14/118847,119169,crf=14
Default : No
Forced : No

Audio #1
ID : 2
Format : AC-3
Format/Info : Audio Coding 3
Commercial name : Dolby Digital
Codec ID : A_AC3
Duration : 1 h 28 min
Bit rate mode : Constant
Bit rate : 192 kb/s
Channel(s) : 2 channels
Channel layout : L R
Sampling rate : 48.0 kHz
Frame rate : 31.250 FPS (1536 SPF)
Bit depth : 16 bits
Compression mode : Lossy
Stream size : 121 MiB (2%)
Title : UKR (K1)
Language : Ukrainian
Service kind : Complete Main
Default : Yes
Forced : Yes

Audio #2
ID : 3
Format :
Format/Info : Digital Theater Systems
Codec ID : A_DTS
Duration : 1 h 28 min
Bit rate mode : Constant
Bit rate : 1 509 kb/s
Channel(s) : 6 channels
Channel layout : C L R Ls Rs LFE
Sampling rate : 48.0 kHz
Frame rate : 93.750 FPS (512 SPF)
Bit depth : 24 bits
Compression mode : Lossy
Stream size : 955 MiB (12%)
Title : Fre
Language : French
Default : No
Forced : No

Text
ID : 4
Format : UTF-8
Codec ID : S_TEXT/UTF8
Codec ID/Info : UTF-8 Plain Text
Title : UKR
Language : Ukrainian
Default : Yes
Forced : No

Menu
00:00:00.000 : en:Chapter 1
00:02:44.081 : en:Chapter 2
00:19:44.016 : en:Chapter 3
00:34:45.041 : en:Chapter 4
00:42:08.568 : en:Chapter 5
00:58:45.230 : en:Chapter 6
01:13:24.692 : en:Chapter 7
01:19:13.499 : en:Chapter 8
01:22:50.382 : en:Chapter 9
Скріншоти








За запис звуку з ТБ дякуємо пану Петров Микола
За субтитри подяка п. химерка
Особиста подяка пану denixx за надану матеріальну допомогу на підтримку цього і майбутніх релізів.
Джерело:
Особиста оцінка: 10 - без зайвих вагань рекомендую всім!


 Трекер:    Зареєстрований   

Завантажити / скачати мультфільм українською



відео для новачків



 Зареєстрований:   2020-01-04 08:30
 Розмір:   7.72 GB 
 Оцінка мультфільму:   9.9/10 (Голосів: 14)
   
MutuLI 
Відео Гуртом - фільмокрай
Відео Гуртом - фільмокрай


З нами з: 08.03.09
Востаннє: 07.03.21
Повідомлень: 2107

2020-01-03 23:26  
Цитата:
Субтитри:
мова: українська
тип: програмні (м'які)
формат: *.srt

В AVC субтитри відтворювались невідомими символами, тут напевно так само?

Anonymous 







2020-01-04 08:31  
MutuLI
субтитри виправлено

MutuLI 
Відео Гуртом - фільмокрай
Відео Гуртом - фільмокрай


З нами з: 08.03.09
Востаннє: 07.03.21
Повідомлень: 2107

2020-01-04 09:42  
субтитри не
Anonymous написано:
тип: пререндерні
, а тип: програмні (м'які).
Ваш часовий пояс: GMT + 2 Години

Нова тема   Відповісти