Рання Пташка (Сезон 2) / Erkenci Kuş (Season 2) (2019) 1080p

Нові коментарі

Нова тема   Відповісти
Автор Повідомлення
Anonymous 







2019-12-28 21:38  
Рання Пташка (Сезон 2) / Erkenci Kuş (Season 2) (2019) 1080p

Рання Пташка (Сезон 2) / Erkenci Kuş (Season 2) (2019) 1080p


Жанр: романтична комедія
Країна: Туреччина



Кінокомпанія: Gold Film, Gold Yapim
Режисер: Чагри Байрак (Cagri Bayrak)
Актори: Демет Оздемір (Demet Özdemir ), Джан Яман (Can Yaman), Біранд Тунджа (Birand Tunca), Берат Енільмез (Berat Yenilmez ) та інші

Сюжет:
Санем з дитинства любила прокидатися, коли сонце тільки підіймається над небосхилом, тому її і назвали “ранньою пташкою”. Зараз їй 20 і вона досі прокидається раніше за всіх, але тепер щоб відкрити сімейний магазин замість батька. Безжурне життя героїні порушує новина про те, що батьки вирішують видати її заміж за нелюба, щоб виправити фінансове становище.

Санем не розгублюється і влаштовується на високооплачувану роботу в рекламне агентство Kontes. З першого ж дня Санем своїми діями змінює все всередині корпорації, хоч і працює звичайним кореспондентом. Дівчину помічають брати-співвласники Джан та Емре. Починається заплутана, але прекрасна історія кохання Санем та Джана. Адже хто може кохати пристрасніше, ніж турецькі чоловіки? Ревнощі, непорозуміння та підступи Емре — як закоханим знайти шлях до сердець один одного?


Тривалість: 1 серія: ~45 хв. (цілком серій: 81)
Перелік серій
Серії №81-161
Якість: [1plus1.video]
Відео*:
кодек:
розмір кадру: 1920 х 1080
бітрейт: 10 мб/с

Аудіо*:
мова: українська
переклад: багатоголосий закадровий
кодек: 2.0
бітрейт: 256 кб/с

Джерело озвучення:
Info
General
Unique ID : 200854100291296180200387379476284150341 (0x971B17B5F865A0F16DA2CA6AFBD19245)
Complete name : F:\Support\series\Рання пташка (Сезон 2) [, 1080p, Ukr]\Серія 081.
Format :
Format version : Version 4
File size : 3.10 GiB
Duration : 43 min 20 s
Overall bit rate : 10.3 Mb/s
Encoded date : UTC 2019-12-27 17:16:21
Writing application : v41.0.0 ('Smarra') 64-bit
Writing library : libebml v1.3.9 + v1.5.2

Video
ID : 1
Format : AVC
Format/Info : Advanced Video Codec
Format profile : [email protected]
Format settings : CABAC / 6 Ref Frames
Format settings, CABAC : Yes
Format settings, Reference : 6 frames
Codec ID : V_MPEG4/ISO/AVC
Duration : 43 min 20 s
Bit rate : 10 000 kb/s
Width : 1 920 pixels
Height : 1 080 pixels
Display aspect ratio : 16:9
Frame rate mode : Constant
Frame rate : 25.000 FPS
Color space : YUV
Chroma subsampling : 4:2:0
Bit depth : 8 bits
Scan type : Progressive
Bits/(Pixel*Frame) : 0.193
Stream size : 3.03 GiB (97%)
Writing library : core 142 r2491 24e4fed
Encoding settings : cabac=1 / ref=6 / deblock=1:0:0 / analyse=0x3:0x113 / me=hex / subme=7 / psy=1 / psy_rd=1.00:0.00 / mixed_ref=1 / me_range=16 / chroma_me=1 / trellis=1 / 8x8dct=1 / cqm=0 / deadzone=21,11 / fast_pskip=1 / chroma_qp_offset=-2 / threads=12 / lookahead_threads=2 / sliced_threads=0 / nr=0 / decimate=1 / interlaced=0 / bluray_compat=0 / constrained_intra=0 / bframes=3 / b_pyramid=2 / b_adapt=1 / b_bias=0 / direct=1 / weightb=1 / open_gop=0 / weightp=2 / keyint=100 / keyint_min=10 / scenecut=40 / intra_refresh=0 / rc_lookahead=40 / rc=2pass / mbtree=1 / bitrate=10000 / ratetol=1.0 / qcomp=0.60 / qpmin=0 / qpmax=69 / qpstep=4 / cplxblur=20.0 / qblur=0.5 / ip_ratio=1.41 / aq=1:1.00
Default : Yes
Forced : No

Audio
ID : 2
Format : LC
Format/Info : Advanced Audio Codec Low Complexity
Codec ID : A_AAC-2
Duration : 43 min 20 s
Bit rate : 256 kb/s
Channel(s) : 2 channels
Channel layout : L R
Sampling rate : 44.1 kHz
Frame rate : 43.066 FPS (1024 SPF)
Compression mode : Lossy
Delay relative to video : -80 ms
Stream size : 79.4 MiB (2%)
Title : ТЕТ
Language : Ukrainian
Default : Yes
Forced : No
Скріншоти
Джерело: &
Особиста оцінка: 0 - не дивився





Золотий реліз (завантажене не впливає на рейтинг)
 Трекер:    Зареєстрований   

Завантажити / скачати серіал українською



відео для новачків



 Зареєстрований:   2019-12-28 21:38
 Розмір:   259.62 GB 
 Оцінка серіалу:   10/10 (Голосів: 7)
   
Ваш часовий пояс: GMT + 2 Години

Нова тема   Відповісти