Земля до початку часів 12. День літунів / The Land Before Time XII. The Great Day of the Flyers (2006) 1080p Ukr/Eng | Sub Eng

Нові коментарі

Нова тема   Відповісти
Автор Повідомлення
sergiyko.5 
Забанено
Забанено


З нами з: 25.02.16
Востаннє: 29.10.20
Повідомлень: 3648

2019-12-28 17:18  
Всі одноіменні релізи на трекері

Земля до початку часів 12. День літунів / The Land Before Time XII. The Great Day of the Flyers (2006) 1080p Ukr/Eng | Sub Eng


Земля до початку часів 12. День літунів / The Land Before Time XII. The Great Day of the Flyers (2006) 1080p Ukr/Eng | Sub Eng

Жанр: мультфільм, пригоди, сімейний
Країна: США
Кінокомпанія: Universal Cartoon Studios
Режисер: Чарльз Гросвенор

Сюжет:
Зустрічайте веселу компанію доісторичних друзів Літлфута, Серу, Пітрі, Спайка і Дакі у нових літаючих пригодах! "День літунів" - важлива подія в житті всіх крилатих динозаврів Великої Долини - зовсім скоро настане, але незалежний вільний стиль Пітрі не дозволяє герою стати своїм серед близьких. Друзі намагаються допомогти йому, але новачок на ім'я Гвідо дає найкориснішу пораду - іноді краще залишатися "самим собою". Ніхто ніколи не бачив такого як Гвідо, і коли команда намагається з'ясувати, до якого виду динозаврів він належить, вони несподівано стають учасниками хвилюючої, таємничої подорожі.




Тривалість: 01:20:30
Якість:

Відео: кодек: розмір кадру: 1920 х 1080 бітрейт: 5700 кб/с
Аудіо # 1: мова: українська переклад: багатоголосий закадровий (псевдодубляж) кодек: 2.0 бітрейт: 192 кб/с
Озвучення:
Аудіо # 2: мова: англійська переклад: оригінал кодек: + 5.1 бітрейт: 640 кб/с
Субтитри: мова: англійська тип: програмні (м'які) формат: *.srt
Про файл:
General
Unique ID : 260197887642424001906316797557913114233 (0xC3C04A52EA4827E71397B72DCFA75679)
Complete name : D:\Documents\Torrents\MULTSER\The Land Before Time 12.The Great Day of the Flyers.2006.1080p..
Format :
Format version : Version 4
File size : 3.66 GiB
Duration : 1 h 20 min
Overall bit rate mode : Variable
Overall bit rate : 6 503 kb/s
Movie name : The Land Before Time 12 by sergiyko
Encoded date : UTC 2019-12-28 15:08:33
Writing application : v41.0.0 ('Smarra') 64-bit
Writing library : libebml v1.3.9 + v1.5.2

Video
ID : 1
Format : AVC
Format/Info : Advanced Video Codec
Format profile : [email protected]
Format settings : CABAC / 4 Ref Frames
Format settings, CABAC : Yes
Format settings, Reference : 4 frames
Codec ID : V_MPEG4/ISO/AVC
Duration : 1 h 20 min
Bit rate mode : Variable
Bit rate : 5 669 kb/s
Maximum bit rate : 15.0 Mb/s
Width : 1 920 pixels
Height : 1 080 pixels
Display aspect ratio : 16:9
Frame rate mode : Constant
Frame rate : 23.976 (24000/1001) FPS
Color space : YUV
Chroma subsampling : 4:2:0
Bit depth : 8 bits
Scan type : Progressive
Bits/(Pixel*Frame) : 0.114
Stream size : 3.19 GiB (87%)
Title : The Land Before Time 12
Language : English
Default : Yes
Forced : No
Color range : Limited
Color primaries : BT.709
Transfer characteristics : BT.709
Matrix coefficients : BT.709

Audio #1
ID : 2
Format : AC-3
Format/Info : Audio Coding 3
Commercial name : Dolby Digital
Codec ID : A_AC3
Duration : 1 h 20 min
Bit rate mode : Constant
Bit rate : 192 kb/s
Channel(s) : 2 channels
Channel layout : L R
Sampling rate : 48.0 kHz
Frame rate : 31.250 FPS (1536 SPF)
Compression mode : Lossy
Stream size : 111 MiB (3%)
Title : DUB 2ch | К1
Language : Ukrainian
Service kind : Complete Main
Default : Yes
Forced : Yes

Audio #2
ID : 3
Format : E-AC-3
Format/Info : Enhanced AC-3
Commercial name : Dolby Digital Plus
Codec ID : A_EAC3
Duration : 1 h 20 min
Bit rate mode : Constant
Bit rate : 640 kb/s
Channel(s) : 6 channels
Channel layout : L R C LFE Ls Rs
Sampling rate : 48.0 kHz
Frame rate : 31.250 FPS (1536 SPF)
Compression mode : Lossy
Delay relative to video : 25 ms
Stream size : 369 MiB (10%)
Title : Original
Language : English
Service kind : Complete Main
Default : No
Forced : No

Text
ID : 4
Format : UTF-8
Codec ID : S_TEXT/UTF8
Codec ID/Info : UTF-8 Plain Text
Duration : 1 h 16 min
Bit rate : 46 b/s
Count of elements : 940
Stream size : 26.1 KiB (0%)
Language : English
Default : No
Forced : No

Menu
00:00:00.000 : en:MPAA rating
00:00:03.985 : en:Studio logos
00:00:27.985 : en:Opening Credits
00:03:08.985 : en:Cera's parents care for their new egg, Tria's nest
00:04:54.985 : en:Petrie gets distracted while flying, the Great Valley
00:07:46.985 : en:Littlefoot talks to Grandpa while Petrie is confronted by his family, the Great Valley & Petrie's nest
00:10:21.985 : en:Tria is overprotective of her egg, Tria's nest
00:11:53.985 : en:Littlefoot & friends encourage Petrie
00:14:44.985 : en:Cera's dad is bothered by the commotion & Guido introduces himself, the Great Valley
00:17:42.985 : en:Petrie & friends sing about being one of a kind, the Great Valley
00:21:15.985 : en:Littlefoot & friends try to find Guido's family
00:24:58.985 : en:Guido & Petrie bond over being different
00:26:42.985 : en:The dinosaurs watch Tria's egg hatch, Tria's nest
00:28:50.985 : en:Petrie introduces Guido to his family, Petrie's nest
00:31:43.985 : en:Cera plays with Tricia & is jealous of all the attention she gets, Tria's nest
00:34:27.985 : en:Cera & friends sing a song about change, the Great Valley
00:39:17.985 : en:Guido coaches Petrie on flying & Cera bonds with Tricia, the Great Valley & Tria's nest
00:43:44.985 : en:Petrie & friends follow Guido while he is sleepwalking, Petrie's nest & the Great Valley
00:47:36.985 : en:Petrie & friends steer Guido away from danger, river & fire rocks
00:50:02.985 : en:Petrie & friends struggle to build a bridge for Guido, valley
00:54:24.985 : en:Guido falls off the ledge, valley
00:56:03.985 : en:Guido is confused when he wakes up in a strange place, Mysterious Beyond
00:58:37.985 : en:Petrie & friends try to help Guido escape, Mysterious Beyond
01:01:55.985 : en:Petrie & his family are worried that he will be late, Petrie's nest & the Great Valley
01:04:24.985 : en:Petrie's siblings prepare to fly without him, the Great Valley
01:07:05.985 : en:Petrie decides to fly his own way, the Great Valley
01:11:18.985 : en:Tricia falls into a river, the Great Valley
01:14:51.985 : en:Cera's dad thanks the flyers & Petrie apologizes to his mom, the Great Valley
01:17:26.985 : en:End Credits
01:19:58.985 : en:Studio logos
01:20:23.985 : en:MPAA rating
Скріншоти:


Запис/зведення: sergiyko


 Трекер:    Зареєстрований   

Завантажити / скачати мультфільм українською



відео для новачків



 Зареєстрований:   2019-12-28 17:18
 Розмір:   3.66 GB 
 Оцінка мультфільму:   10/10 (Голосів: 6)
   
MutuLI 
Відео Гуртом - фільмокрай
Відео Гуртом - фільмокрай


З нами з: 08.03.09
Востаннє: 03.03.21
Повідомлень: 2104

2019-12-28 22:05  
Дякую.
sergiyko.5 написано:
багатоголосий закадровий (псевдодубляж)

а що це вони тут дубляж не зробили, як в попередніх частинах?

sergiyko.5 
Забанено
Забанено


З нами з: 25.02.16
Востаннє: 29.10.20
Повідомлень: 3648

2019-12-28 22:31  
MutuLI
У всіх частинах псевдодубляж, трохи чутно оригінальну доріжку, але у дванадцятій чути голосніше. Тому написав так.

myshkommp 
Новенький


З нами з: 07.03.15
Востаннє: 28.02.21
Повідомлень: 4

2019-12-29 03:03  
Привіт усім! Підскажіть де можна знайти 5 частину?
max factor 
Частий відвідувач


З нами з: 08.01.19
Востаннє: 01.02.21
Повідомлень: 42

2019-12-29 15:59  
myshkommp
Поки що ніде не знайдете. Сам шукав, але марно. у 2020 році обов’язково ще покажуть. Я впевнений.

Ваш часовий пояс: GMT + 2 Години

Нова тема   Відповісти