Першому гравцю приготуватися / Ready Player One (2018) UHD Remux 2160p 4K HDR H.265 Ukr/Eng | Sub Eng

Нові коментарі

Нова тема   Відповісти
Автор Повідомлення
Argentum 
VIP


З нами з: 25.09.11
Востаннє: 24.09.20
Повідомлень: 259

2019-12-26 16:42  
Першому гравцю приготуватися / Ready Player One (2018) UHD Remux 2160p 4K HDR H.265 Ukr/Eng | Sub Eng

Першому гравцю приготуватися / Ready Player One (2018) UHD Remux 2160p 4K HDR H.265 Ukr/Eng | Sub Eng


Жанр: фантастика, пригодницький
Країна: США



Кінокомпанія: DreamWorks Pictures, Reliance Entertainment, Village Roadshow Pictures, Amblin Entertainment, De Line Pictures, RatPac-Dune Entertainment
Режисер: Стівен Спілберг
Актори: Тай Шерідан, Олівія Кук, Ліна Вейт, Філіп Жао, Він Морізакі, Бен Мендельсон, Марк Райленс, Саймон Пегг та інші.

Сюжет:
Події фільму відбуваються у 2045 році, коли світ стоїть на межі хаосу. Люди шукають порятунку в ОАЗИСІ, дорогій системі віртуальної реальності, створеній геніальним та ексцентричним Джеймсом Холлідеєм (Марк Райленс). Коли Холлідей помирає, він залишає усі свої величезні статки людині, яка знайде Великоднє яйце, сховане десь в ОАЗИСІ. Відтоді увесь світ занурюється у цей неймовірний квест. Коли юнак на ім’я Вейд Воттс (Тай Шерідан) вирішує приєднатись до змагання, він потрапляє у небезпечне полювання на скарб у фантастичному всесвіті таємниць, відкриттів та ризику.


Тривалість: 02:19:58
Якість: 4K UltraHD Remux 2160p

Відео:
кодек: H.265 (HEVC)
розмір кадру: 3840 х 2160
бітрейт: 63,0 Мб/с
бітова глибина: 10 біт
кольоровий простір: BT.2020 (HDR)

Увага! Перед завантаженням переконайтесь, що ваш пристрій відтворення (та/або ПЗ) підтримує H.265 (HEVC)

Аудіо # 1:
мова: українська
переклад: професійний дубльований | студія Postmodern
кодек: 5.1
бітрейт: 384 кб/с
Інформація про дубляж
Режисер дубляжу: Катерина Брайковська
Ролі дублювали: Вейд – Андрій Федінчик, Артеміда – Катерина Буцька, Нолан – Володимир Терещук, Ейч – Світлана Шекера, Галлідей – Олег Лепенець, Ай-Рок – Дмитро Гаврилов.
Аудіо # 2:
мова: англійська
переклад: оригінал
кодек: -HD MA 7.1
бітрейт: 4 184 кб/с

Аудіо # 3:
мова: англійська
переклад: оригінал
кодек: 5.1
бітрейт: 640 кб/с

Субтитри: (форсовані)
мова: українська
тип: програмні (м'які)
формат: *.srt

Субтитри:
мова: англійська
тип: програмні (м'які)
формат: *.srt
Info
General
Unique ID : 50587129292865862880454919769313134092 (0x260EBA09B43BFE82C07CC56F9AB6460C)
Complete name : Ready Player One (2018) [Ukr, Eng] Remux HDR 2160p.
Format :
Format version : Version 4
File size : 66.6 GiB
Duration : 2 h 19 min
Overall bit rate mode : Variable
Overall bit rate : 68.2 Mb/s
Movie name : Ready Player One (2018)
Encoded date : UTC 2019-12-26 14:43:37
Writing application : v41.0.0 ('Smarra') 64-bit
Writing library : libebml v1.3.9 + v1.5.2
Attachments : Ready_Player_One.jpg

Video
ID : 1
Format : HEVC
Format/Info : High Efficiency Video Coding
Format profile : Main [email protected]@High
HDR format : SMPTE ST 2086, HDR10 compatible
Codec ID : V_MPEGH/ISO/HEVC
Duration : 2 h 19 min
Bit rate : 63.0 Mb/s
Width : 3 840 pixels
Height : 2 160 pixels
Display aspect ratio : 16:9
Frame rate mode : Constant
Frame rate : 23.976 (24000/1001) FPS
Color space : YUV
Chroma subsampling : 4:2:0 (Type 2)
Bit depth : 10 bits
Bits/(Pixel*Frame) : 0.317
Stream size : 61.6 GiB (92%)
Title : HEVC 3840*2160 HDR10 @ 63.0 Mb/s
Language : Multiple languages
Default : Yes
Forced : Yes
Color range : Limited
Color primaries : BT.2020
Transfer characteristics : PQ
Matrix coefficients : BT.2020 non-constant
Mastering display color primaries : BT.2020
Mastering display luminance : min: 0.0050 cd/m2, max: 4000 cd/m2
Maximum Content Light Level : 725 cd/m2
Maximum Frame-Average Light Level : 162 cd/m2

Audio #1
ID : 2
Format : AC-3
Format/Info : Audio Coding 3
Commercial name : Dolby Digital
Codec ID : A_AC3
Duration : 2 h 19 min
Bit rate mode : Constant
Bit rate : 384 kb/s
Channel(s) : 6 channels
Channel layout : L R C LFE Ls Rs
Sampling rate : 48.0 kHz
Frame rate : 31.250 FPS (1536 SPF)
Compression mode : Lossy
Stream size : 384 MiB (1%)
Title : AC-3 5.1 @ 384 kb/s
Language : Ukrainian
Service kind : Complete Main
Default : Yes
Forced : Yes

Audio #2
ID : 3
Format : XLL
Format/Info : Digital Theater Systems
Commercial name : -HD Master Audio
Codec ID : A_DTS
Duration : 2 h 19 min
Bit rate mode : Variable
Bit rate : 4 184 kb/s
Channel(s) : 8 channels
Channel layout : C L R LFE Lb Rb Lss Rss
Sampling rate : 48.0 kHz
Frame rate : 93.750 FPS (512 SPF)
Bit depth : 24 bits
Compression mode : Lossless
Stream size : 4.09 GiB (6%)
Title : -HD MA 7.1 @ 4 184 kb/s
Language : English
Default : No
Forced : No

Audio #3
ID : 4
Format : AC-3
Format/Info : Audio Coding 3
Commercial name : Dolby Digital
Codec ID : A_AC3
Duration : 2 h 19 min
Bit rate mode : Constant
Bit rate : 640 kb/s
Channel(s) : 6 channels
Channel layout : L R C LFE Ls Rs
Sampling rate : 48.0 kHz
Frame rate : 31.250 FPS (1536 SPF)
Compression mode : Lossy
Stream size : 641 MiB (1%)
Title : AC-3 5.1 @ 640 kb/s
Language : English
Service kind : Complete Main
Default : No
Forced : No

Text #1
ID : 5
Format : UTF-8
Codec ID : S_TEXT/UTF8
Codec ID/Info : UTF-8 Plain Text
Duration : 2 h 18 min
Bit rate : 2 b/s
Count of elements : 65
Stream size : 2.84 KiB (0%)
Title : Forced
Language : Ukrainian
Default : Yes
Forced : Yes

Text #2
ID : 6
Format : UTF-8
Codec ID : S_TEXT/UTF8
Codec ID/Info : UTF-8 Plain Text
Duration : 2 h 7 min
Bit rate : 60 b/s
Count of elements : 1635
Stream size : 56.2 KiB (0%)
Title : Full
Language : English
Default : No
Forced : No

Menu
00:00:00.000 : en:Chapter 1
00:10:08.232 : en:Chapter 2
00:20:18.258 : en:Chapter 3
00:30:37.627 : en:Chapter 4
00:40:38.269 : en:Chapter 5
00:50:08.964 : en:Chapter 6
01:03:01.778 : en:Chapter 7
01:11:55.269 : en:Chapter 8
01:20:14.726 : en:Chapter 9
01:30:58.327 : en:Chapter 10
01:43:26.742 : en:Chapter 11
01:53:02.150 : en:Chapter 12
02:04:20.161 : en:Chapter 13
02:09:17.249 : en:Chapter 14
Скріншоти









Джерело:
Особиста оцінка: 8 - мені сподобалося


Золотий реліз (завантажене не впливає на рейтинг)
 Трекер:    Зареєстрований   

Завантажити / скачати фільм українською



відео для новачків



 Зареєстрований:   2019-12-27 16:46
 Розмір:   66.65 GB 
 Оцінка фільму:   9.8/10 (Голосів: 9)
   
Інші релізи
   Першому гравцю приготуватися / Ready Player One (2018) Remux 1080р Ukr/Eng | Sub Eng staf777  3 / 0   24.95 GB   2020-04-21 16:56 
   Першому гравцю приготуватися / Ready Player One (2018) 1080p H.265 Ukr/Eng | Sub Eng -Star-Lord-  10 / 0   9.15 GB   2019-12-24 12:57 
   Першому гравцю приготуватися / Ready Player One (2018) igor911  11 / 0   2.18 GB   2019-12-23 18:31 
   Першому гравцю приготуватися / Ready Player One (2018) 720p Ukr/Eng | Sub Eng igor911  10 / 0   6.31 GB   2019-12-23 17:50 
   Першому гравцю приготуватися / Ready Player One (2018) 1080p Ukr/Eng | Sub Eng 11FrYkT  3 / 0   13.5 GB   2019-12-22 21:24 
   Першому гравцю приготуватися / Ready Player One (2018) AVC Ukr/Eng | Sub Eng uafilm.tv  13 / 0   2.85 GB   2019-12-22 21:00 
   Першому гравцю приготуватися / Ready Player One (2018) Український дубляж [5.1 ] mutomba  2 / 0   1.48 GB   2018-10-14 23:10 
   Першому гравцю приготуватися / Ready Player One (2018) 720p-mini (60 fps) Drool  4 / 0   6.05 GB   2018-10-02 17:16 
   Першому гравцю приготуватися / Ready Player One (2018) 1080p 3D [Half OverUnder] Ukr/Eng | Sub Eng QWERTYJJJJJJ  8 / 0   13.53 GB   2018-07-24 15:27 
   Першому гравцю приготуватися / Ready Player One (2018) 1080p H.265 Ukr/Eng | Sub Eng ukr_anonymous  15 / 0   5.7 GB   2018-07-06 17:00 
bot 
робот


З нами з: 30.09.07
Востаннє: 26.05.05
Повідомлень: 25603

2019-12-26 16:42  
Тему перенесено з Фільми в HD до форуму Анонси релізів


Argentum

Gingеrbread 
Забанено
Забанено


З нами з: 01.07.19
Востаннє: 02.03.20
Повідомлень: 358

2019-12-26 17:48  
Варто в таких фільмах вказувати що 4K несправжнє, а зроблене з 2К це б спростило пошук тим хто б хотів глянути нормально знятий фільм в 4К
Argentum 
VIP


З нами з: 25.09.11
Востаннє: 24.09.20
Повідомлень: 259

2019-12-26 18:40  
Gingеrbread написано:
Варто в таких фільмах вказувати що 4K несправжнє, а зроблене з 2К це б спростило пошук тим хто б хотів глянути нормально знятий фільм в 4К

Ви не знайдете цей фільм у кращій якості оскільки відеоряд взятий з офіційного 4K UHD Blu-ray. Хіба що без доріжки 1080p для відтворення у форматі Dolby Vision.

Gingеrbread 
Забанено
Забанено


З нами з: 01.07.19
Востаннє: 02.03.20
Повідомлень: 358

2019-12-26 19:16  
Argentum написано:
Ви не знайдете цей фільм у кращій якості оскільки відеоряд взятий з офіційного 4K UHD Blu-ray. Хіба що без доріжки 1080p для відтворення у форматі Dolby Vision.

Та я не про якість просто багато фільмів у 4К це просто апскейли, і для інформації було б непогано вказувати що це апскейл з 2К або що

0mage0 
VIP


З нами з: 06.10.15
Востаннє: 24.09.20
Повідомлень: 696

2019-12-26 20:56  
Gingеrbread написано:
багато фільмів у 4К це просто апскейли

Як на мене, це злочин. І навіщо це роблять?

bot 
робот


З нами з: 30.09.07
Востаннє: 26.05.05
Повідомлень: 25603

2019-12-27 16:46  
Тему перенесено з Анонси релізів до форуму Фільми в HD


Argentum

deus207 
Частий відвідувач


З нами з: 19.03.10
Востаннє: 25.09.20
Повідомлень: 45

2019-12-27 20:54  
Всі фільми, що зараз знімають на цифру - це апскейли з 2к. І це десь із 2010-11років незмінно(а то й раніше).
Мабуть, поки нема настільки якісної технології, щоб було рідне 4к.

Ваш часовий пояс: GMT + 2 Години

Нова тема   Відповісти