Джокер / Joker (2019) 1080p H.265 Ukr/Eng | Sub Eng

Нові коментарі

Нова тема   Відповісти
Автор Повідомлення
Anonymous 







2019-12-25 15:35  
Джокер / Joker (2019) 1080p H.265 Ukr/Eng | Sub Eng

Джокер / Joker (2019) 1080p H.265 Ukr/Eng | Sub Eng


Жанр: драма, кримінал, трилер
Країна: США, Канада
Кінокомпанія: BRON Studios, Creative Wealth Media Finance, DC Comics
Режисер: Тодд Філліпс
Актори: Хоакін Фенікс, Зазі Бітц, Роберт Де Ніро, Марк Мерон, Френсіс Конрой, Ші Уігхем, Бретт Каллен, Дуглас Ходж

Сюжет:
Відчуваючи самотність, Артур Флек шукає моральну підтримку. Проте, гуляючи покинутими вулицями Ґотему та пересуваючись у розмальованому графіті громадському транспорті ворожого міста, Артур носить дві маски. Першу він використовує для повсякденної роботи клоуном. Іншої ж просто не може позбутись. Це подоба особистості, яку він проектує в марній спробі відчути себе частиною навколишнього світу, а не самотньою людиною, яку весь час шматує життя. У Артура немає батька – лише слабка матір. Вона є для нього одночасно й найкращою подругою. Мати дала йому прізвисько Щасливчик. Це прізвисько викликає в Артура посмішку, яка приховує сильний душевний біль. Проте коли на вулицях знущаються підлітки, в метро насміхаються над костюмом клоуна, а колеги злісно дражнять, Артуру не залишається іншого вибору, крім як ще більше відмежувати себе від суспільства.

Тривалість: 02:01:49
Якість:

Відео:
кодек: H.265 (HEVC)
розмір кадру: 1920 x 1040
бітрейт: 8 077 кб/с
бітова глибина: 10 біт

Увага! Перед завантаженням переконайтесь, що ваш пристрій відтворення (та/або ПЗ) підтримує H.265 (HEVC)

Аудіо # 1:
мова: українська
переклад: професійний дубльований
кодек: AC-3 5.1
бітрейт: 384 кб/с

Аудіо # 2:
мова: англійська
переклад: оригінал
кодек: 5.1
бітрейт: 1510 кб/с

Субтитри # 1-2: (Full, SDH)
мова: англійська
тип: програмні (м'які)
формат: *.srt


Info
Код:
General
Unique ID                                : 81827213819242820056557219781437765665 (0x3D8F591F714CD8D99F44964BBECB3821)
Complete name                            : Joker (2019) 1080p H.265 [UKR_ENG] [Hurtom].
Format                                   :
Format version                           : Version 4
File size                                : 8.49 GiB
Duration                                 : 2 h 1 min
Overall bit rate                         : 9 973 kb/s
Movie name                               : Джокер / Joker (2019)
Encoded date                             : UTC 2019-12-29 21:57:09
Writing application                      : v20.0.0 ('I Am The Sun') 64-bit
Writing library                          : libebml v1.3.5 + v1.4.8
Cover                                    : Yes
Attachments                              : cover.jpg

Video
ID                                       : 1
Format                                   : HEVC
Format/Info                              : High Efficiency Video Coding
Format profile                           : Main [email protected]@High
Codec ID                                 : V_MPEGH/ISO/HEVC
Duration                                 : 2 h 1 min
Bit rate                                 : 8 076 kb/s
Width                                    : 1 920 pixels
Height                                   : 1 040 pixels
Display aspect ratio                     : 1.85:1
Frame rate mode                          : Constant
Frame rate                               : 23.976 (23976/1000) FPS
Original frame rate                      : 23.976 (24000/1001) FPS
Color space                              : YUV
Chroma subsampling                       : 4:2:0
Bit depth                                : 10 bits
Bits/(Pixel*Frame)                       : 0.169
Stream size                              : 6.87 GiB (81%)
Title                                    : Джокер / Joker (2019)
Writing library                          : x265 3.2.1+1-b5c86a64bbbe:[Windows][MSVC 1923][64 bit] 10bit
Encoding settings                        : cpuid=1111039 / frame-threads=3 / numa-pools=12 / wpp / no-pmode / no-pme / no-psnr / no-ssim / log-level=2 / input-csp=1 / input-res=1920x1040 / interlace=0 / total-frames=166365 / level-idc=41 / high-tier=1 / uhd-bd=0 / ref=5 / no-allow-non-conformance / no-repeat-headers / annexb / no-aud / no-hrd / info / hash=0 / no-temporal-layers / open-gop / min-keyint=23 / keyint=240 / gop-lookahead=0 / bframes=16 / b-adapt=2 / b-pyramid / bframe-bias=0 / rc-lookahead=60 / lookahead-slices=4 / scenecut=40 / radl=0 / no-splice / no-intra-refresh / ctu=32 / min-cu-size=8 / rect / amp / max-tu-size=32 / tu-inter-depth=4 / tu-intra-depth=4 / limit-tu=1 / rdoq-level=2 / dynamic-rd=0.00 / no-ssim-rd / signhide / no-tskip / nr-intra=0 / nr-inter=0 / no-constrained-intra / no-strong-intra-smoothing / max-merge=4 / limit-refs=2 / limit-modes / me=3 / subme=7 / merange=57 / temporal-mvp / no-hme / weightp / weightb / no-analyze-src-pics / deblock=-3:-3 / no-sao / no-sao-non-deblock / rd=6 / selective-sao=0 / no-early-skip / no-rskip / no-fast-intra / no-tskip-fast / no-cu-lossless / no-b-intra / no-splitrd-skip / rdpenalty=0 / psy-rd=2.00 / psy-rdoq=1.00 / no-rd-refine / no-lossless / cbqpoffs=0 / crqpoffs=0 / rc=crf / crf=21.0 / qcomp=0.75 / qpstep=4 / stats-write=0 / stats-read=0 / vbv-maxrate=50000 / vbv-bufsize=50000 / vbv-init=0.9 / crf-max=0.0 / crf-min=0.0 / ipratio=1.40 / pbratio=1.30 / aq-mode=1 / aq-strength=1.00 / no-cutree / zone-count=0 / no-strict-cbr / qg-size=32 / no-rc-grain / qpmax=69 / qpmin=0 / no-const-vbv / sar=1 / overscan=0 / videoformat=5 / range=0 / colorprim=1 / transfer=1 / colormatrix=1 / chromaloc=0 / display-window=0 / cll=0,0 / min-luma=0 / max-luma=1023 / log2-max-poc-lsb=8 / vui-timing-info / vui-hrd-info / slices=1 / no-opt-qp-pps / no-opt-ref-list-length-pps / no-multi-pass-opt-rps / scenecut-bias=0.05 / no-opt-cu-delta-qp / no-aq-motion / no-hdr / no-hdr-opt / no-dhdr10-opt / no-idr-recovery-sei / analysis-reuse-level=5 / scale-factor=0 / refine-intra=0 / refine-inter=0 / refine-mv=1 / refine-ctu-distortion=0 / no-limit-sao / ctu-info=0 / no-lowpass-dct / refine-analysis-type=0 / copy-pic=1 / max-ausize-factor=1.0 / no-dynamic-refine / no-single-sei / no-hevc-aq / no-svt / no-field / qp-adaptation-range=1.00
Default                                  : Yes
Forced                                   : No
Color range                              : Limited
Color primaries                          : BT.709
Transfer characteristics                 : BT.709
Matrix coefficients                      : BT.709

Audio #1
ID                                       : 2
Format                                   : AC-3
Format/Info                              : Audio Coding 3
Commercial name                          : Dolby Digital
Codec ID                                 : A_AC3
Duration                                 : 2 h 1 min
Bit rate mode                            : Constant
Bit rate                                 : 384 kb/s
Channel(s)                               : 6 channels
Channel layout                           : L R C LFE Ls Rs
Sampling rate                            : 48.0 kHz
Frame rate                               : 31.250 FPS (1536 SPF)
Bit depth                                : 16 bits
Compression mode                         : Lossy
Stream size                              : 335 MiB (4%)
Title                                    : / 5.1 Ch / 384 kbps / ПД / iTunes / Студія Postmodern
Language                                 : Ukrainian
Service kind                             : Complete Main
Default                                  : Yes
Forced                                   : Yes

Audio #2
ID                                       : 3
Format                                   :
Format/Info                              : Digital Theater Systems
Codec ID                                 : A_DTS
Duration                                 : 2 h 1 min
Bit rate mode                            : Constant
Bit rate                                 : 1 509 kb/s
Channel(s)                               : 6 channels
Channel layout                           : C L R Ls Rs LFE
Sampling rate                            : 48.0 kHz
Frame rate                               : 93.750 FPS (512 SPF)
Bit depth                                : 16 bits
Compression mode                         : Lossy
Stream size                              : 1.28 GiB (15%)
Title                                    : / 5.1 Ch / 1509 kbps / Original
Language                                 : English
Default                                  : No
Forced                                   : No

Text #1
ID                                       : 4
Format                                   : UTF-8
Codec ID                                 : S_TEXT/UTF8
Codec ID/Info                            : UTF-8 Plain Text
Duration                                 : 1 h 54 min
Bit rate                                 : 44 b/s
Count of elements                        : 1326
Stream size                              : 36.9 KiB (0%)
Title                                    : Full
Language                                 : English
Default                                  : No
Forced                                   : No

Text #2
ID                                       : 5
Format                                   : UTF-8
Codec ID                                 : S_TEXT/UTF8
Codec ID/Info                            : UTF-8 Plain Text
Duration                                 : 1 h 58 min
Bit rate                                 : 55 b/s
Count of elements                        : 1735
Stream size                              : 47.9 KiB (0%)
Title                                    : SDH
Language                                 : English
Default                                  : No
Forced                                   : No

Menu
00:00:00.000                             : :Chapter 01
00:10:28.794                             : :Chapter 02
00:21:01.301                             : :Chapter 03
00:28:44.973                             : :Chapter 04
00:38:14.500                             : :Chapter 05
00:46:21.570                             : :Chapter 06
00:56:19.292                             : :Chapter 07
01:04:41.168                             : :Chapter 08
01:15:41.745                             : :Chapter 09
01:26:16.045                             : :Chapter 10
01:37:02.608                             : :Chapter 11
01:45:50.385                             : :Chapter 12
01:55:44.646                             : :Chapter 13
Світлини




Джерело: &
Особиста оцінка: 10 - без зайвих вагань рекомендую всім!


 Трекер:    Зареєстрований   

Завантажити / скачати фільм українською



відео для новачків



 Зареєстрований:   2019-12-30 00:34
 Розмір:   8.49 GB 
 Оцінка фільму:   9.2/10 (Голосів: 31)
   
Інші релізи
   Джокер / Joker (2019) Blu-Ray 1080р Ukr/Eng/Multi | Sub Ukr/Eng/Multi [Custom] kryk-v.ya.  7 / 1   32.14 GB   2020-02-01 13:44 
   Джокер / Joker (2019) Ukr/Eng antik_2008  86 / 0   2.29 GB   2020-01-02 09:40 
   Джокер / Joker (2019) antik_2008  48 / 4   1.6 GB   2020-01-02 09:38 
   Джокер / Joker (2019) UHD Remux 4K 2160p HDR H.265 Ukr/Eng | Sub Eng antik_2008  35 / 1   46.89 GB   2019-12-30 00:15 
   Джокер / Joker (2019) 1080р Ukr/Eng | Sub Eng antik_2008  56 / 0   9.91 GB   2019-12-30 00:12 
   Джокер / Joker (2019) Remux 1080p Ukr/Eng | Sub Eng antik_2008  19 / 0   21.02 GB   2019-12-30 00:09 
   Джокер / Joker (2019) 720p Ukr/Eng | Sub Eng 11FrYkT  57 / 0   4.78 GB   2019-12-28 22:01 
   Джокер / Joker (2019) AVC Ukr/Eng | Sub Eng 11FrYkT  57 / 1   2.45 GB   2019-12-28 21:57 
vash1 
Поважний учасник


З нами з: 16.03.16
Востаннє: 11.02.20
Повідомлень: 229

2019-12-25 19:34  
Дякую!

А звідки Core, якщо не секрет? В UHD та 1080p ремусах TrueHD+Аtmos

Anonymous 







2019-12-25 21:07  
vash1
Не знаю, взято з релізу з-за бугра, разом із субтитрами.

vash1 
Поважний учасник


З нами з: 16.03.16
Востаннє: 11.02.20
Повідомлень: 229

2019-12-28 23:41  
Anonymous, дякую! на блурей.ком наче лише один німецький блюр виходив з ДТС. напевно, з нього. бо усі решта (особливо американські) з TrueHD

спектр в ДТС просто шикарний. картинка з незстисненим TrueHD 1:1

однозначно краще, ніж core @ 640 kbps


Anonymous 







2019-12-30 00:34  
Доріжка з 
VitNi 
Попереджень: 1
Попереджень: 1 


З нами з: 05.05.12
Востаннє: 17.02.20
Повідомлень: 142

2019-12-30 08:06  
явно переоцінений фільм.
Режисура та гра акторів - шедевр. Сюжет слабкий.
Ну і звісно що пише лівою рукою - а як же ж - 80% відсотків в американських фільмах пишуть лівою - мабуть за це є бонуси з бюджета.
Але тема підорасів не висвітлена...
Фільм на 6 балів потягне.

vash1 
Поважний учасник


З нами з: 16.03.16
Востаннє: 11.02.20
Повідомлень: 229

2019-12-31 10:49  
VitNi написано:

явно переоцінений фільм.
Режисура та гра акторів - шедевр.


Happy

0mage0 
VIP


З нами з: 06.10.15
Востаннє: 17.02.20
Повідомлень: 631

2020-01-04 22:15  
Такий собі фільм. Є похмура атмосфера, є божевілля. Але це для мене мінуси. Не знаю, може комусь це подобається, судячи з каси, певно, подобається :/
Відмітив два моменти — клітчату сумку, як в Україні та сцену в кінці фільму, де Джокер стояв на машині, а натовп його "коронував". Виникла асоціація з результатами останніх президентських виборів в Україні Sad (1)

VitNi написано:
80% відсотків в американських фільмах пишуть лівою

Не рахував відсотки, але теж помічав, що лівою у фільмах частіше пишуть ніж у житті. Хоча скоро, здається, більшість не буде вміти писати "від руки" взагалі, все на компах Happy

don pedro 
Попереджень: 1
Попереджень: 1 


З нами з: 29.06.11
Востаннє: 14.02.20
Повідомлень: 15668

2020-01-04 22:46  
VitNi написано:
Ну і звісно що пише лівою рукою - а як же ж - 80% відсотків в американських фільмах пишуть лівою - мабуть за це є бонуси з бюджета.

0mage0 написано:
але теж помічав, що лівою у фільмах частіше пишуть ніж у житті

Бо в США давно перестали у школі перевчати писати дітей з лівої руки на праву. В Україні шульг перестали ламати тільки недавно.

Akio Furukawa 
Частий відвідувач


З нами з: 02.11.19
Востаннє: 17.02.20
Повідомлень: 41

2020-01-05 01:17  
То це й є отой Джокер, що через нього мало не всесвітній хіпес? Невже оце заради постановки одного примітивного (хоча й безперечно важливого) питання «що отримаєш, якщо схрестиш божевільного одинака з оточенням, що його пригнічувало та ставилося, як до лайна?» нагородили такий роздутий пустопорожній город? Замість розкрити сутність та структуру оточення, фільм наповнений недолугим позерством, фрагментарно-калейдоскопічними деталями та надмірною увагою до другорядних дрібниць. Втім, що ще можна очікувати від дискурсу світу коміксів, байдуже, DC це чи Marvel чи ще якісь там.
3/10

pintg 
Поважний учасник


З нами з: 14.04.16
Востаннє: 17.02.20
Повідомлень: 161

2020-01-31 22:54  
Як на мене - переводня часу.
Я авжеж не експерт з канонів світу Бетмена, але навіть з тим, що я пам'ятаю цей приквел не дуже добре зшивається. Обцяного глибинного сенсу крім того, що "якщо тебе ніхто не любить та ти невдаха, то винні усі окрім тебе" я там не побачив.

don pedro 
Попереджень: 1
Попереджень: 1 


З нами з: 29.06.11
Востаннє: 14.02.20
Повідомлень: 15668

2020-01-31 22:58  
pintg написано:
канонів світу Бетмен

На щастя, усі (особливо після цього фільму) наплювали на будь-які давно застарілі та мертві "канони".

pintg 
Поважний учасник


З нами з: 14.04.16
Востаннє: 17.02.20
Повідомлень: 161

2020-02-03 15:35  
don pedro написано:
На щастя, усі (особливо після цього фільму) наплювали на будь-які давно застарілі та мертві "канони".

Канони це те, що дозволяє вигаданій історії триматися купи. В іншому випадку пазли не складаються та не утворюється цілісної картини. Якщо канони застаріли, то потрібно змальовувати нову історію... ах так, куди краще використовувати вже відомий "бренд".

Ваш часовий пояс: GMT + 2 Години

Нова тема   Відповісти