Компанія Санти OVA / Santa Company (2014) 720p Jap / Ukr sub

Нові коментарі

Нова тема   Відповісти
Останній раз роздавалося Vadym_Vadym (2020-02-22)
Автор Повідомлення
Amanogawa 
VIP


З нами з: 27.09.17
Востаннє: 20.02.20
Повідомлень: 619

2019-12-24 22:44  
Компанія Санти OVA / Santa Company

Компанія Санти OVA / Santa Company (2014) 720p Jap / Ukr sub


Жанр: Різдвяне кіно, сімейний
Країна: Японія



Кінокомпанія: Nexus
Режисер: Юмі Камакура
Сюжет:
Різдвяна історія про тонтусів — учнів та малих співробітників Компанії Санти, які вирішили доставити дитині забутий подарунок.


Тривалість: 28 хвилин
Якість:
Відео:
кодек: H.265 (можливі проблеми з відтворенням у деяких плеерах)
розмір кадру: 1280 х 720
бітрейт: 2800 кб/с

Аудіо:
мова: японська
переклад: оригінал
кодек: 2.0
бітрейт: 128 кб/с

Субтитри:
мова: українська
тип: програмні (м'які)
формат: *.
Info

General
Unique ID : 168480453560370865622370269417351093927 (0x7EC027B1B90F814C05A4519A25FF1EA7)
Complete name : C:\Users\Вадим\Desktop\Компанія Санти [Mitsuruki].
Format :
Format version : Version 4
File size : 602 MiB
Duration : 28 min 1 s
Overall bit rate : 3 002 kb/s
Encoded date : UTC 2019-12-24 20:46:55
Writing application : v30.1.0 ('Forever And More') 64-bit
Writing library : libebml v1.3.6 + v1.4.9
Attachments : CommieSans-MediumIt_6.ttf / JandaCurlygirlChunky_1.ttf / VAGRoundedStd-Bold.otf / CommieSans-Medium_7.ttf

Video
ID : 1
Format : AVC
Format/Info : Advanced Video Codec
Format profile : High [email protected]
Format settings : CABAC / 16 Ref Frames
Format settings, CABAC : Yes
Format settings, ReFrames : 16 frames
Codec ID : V_MPEG4/ISO/AVC
Duration : 28 min 1 s
Bit rate : 2 847 kb/s
Width : 1 280 pixels
Height : 720 pixels
Display aspect ratio : 16:9
Frame rate mode : Constant
Frame rate : 23.976 (24000/1001) FPS
Color space : YUV
Chroma subsampling : 4:2:0
Bit depth : 10 bits
Scan type : Progressive
Bits/(Pixel*Frame) : 0.129
Stream size : 571 MiB (95%)
Writing library : core 142 r2431+42 c69a006 tMod [[email protected] X86_64]
Encoding settings : cabac=1 / ref=16 / deblock=1:0:0 / analyse=0x3:0x133 / me=umh / subme=10 / psy=1 / fade_compensate=0.72 / psy_rd=0.80:0.20 / mixed_ref=1 / me_range=24 / chroma_me=1 / trellis=2 / 8x8dct=1 / cqm=0 / deadzone=21,11 / fast_pskip=1 / chroma_qp_offset=-3 / threads=12 / lookahead_threads=3 / sliced_threads=0 / nr=0 / decimate=1 / interlaced=0 / bluray_compat=0 / constrained_intra=0 / fgo=0 / bframes=16 / b_pyramid=2 / b_adapt=2 / b_bias=0 / direct=3 / weightb=1 / open_gop=0 / weightp=2 / keyint=250 / keyint_min=23 / scenecut=40 / intra_refresh=0 / rc_lookahead=60 / rc=crf / mbtree=1 / crf=16.0000 / qcomp=0.72 / qpmin=0:0:0 / qpmax=81:81:81 / qpstep=4 / ip_ratio=1.40 / aq=3:0.80 / aq-sensitivity=10.00 / aq-factor=1.00:1.00:1.00 / aq2=0 / aq3=0
Language : English
Default : Yes
Forced : No

Audio
ID : 2
Format : LC
Format/Info : Advanced Audio Codec Low Complexity
Codec ID : A_AAC-2
Duration : 28 min 1 s
Bit rate : 151 kb/s
Channel(s) : 2 channels
Channel layout : L R
Sampling rate : 48.0 kHz
Frame rate : 46.875 FPS (1024 SPF)
Compression mode : Lossy
Delay relative to video : 20 ms
Stream size : 30.3 MiB (5%)
Language : Japanese
Default : Yes
Forced : No

Text
ID : 3
Format :
Codec ID : S_TEXT/
Codec ID/Info : Advanced Sub Station Alpha
Duration : 27 min 38 s
Bit rate : 202 b/s
Count of elements : 485
Compression mode : Lossless
Stream size : 41.0 KiB (0%)
Title : Mitsuruki
Language : Ukrainian
Default : Yes
Forced : No
Скріншоти






Джерело: Переклади Mitsuruki
Переклад: Току та Furunze
Особиста оцінка

Невеличка різдвяна ОВА з різдвяним настроєм. Воно дуже просте, але таке вже є. В 2019 році по цій ОВІ зробили повноцінну історію, але переклад до нас ще не дійшов. Сподіваюся, наступного року буде і той фільм.
Невеличкий різдвяний подаруночок для вас.


Золотий реліз (завантажене не впливає на рейтинг)
 Трекер:    Зареєстрований   

Завантажити / скачати аніме українською



відео для новачків



 Зареєстрований:   2019-12-24 23:04
 Розмір:   602 MB 
 Оцінка аніме:   9/10 (Голосів: 3)
   
bot 
робот


З нами з: 30.09.07
Востаннє: 26.05.05
Повідомлень: 23346

2019-12-24 22:44  
Тему перенесено з Аніме до форуму Анонси релізів


Mitsuruki

bot 
робот


З нами з: 30.09.07
Востаннє: 26.05.05
Повідомлень: 23346

2019-12-24 23:04  
Тему перенесено з Анонси релізів до форуму Аніме


Mitsuruki

Ваш часовий пояс: GMT + 2 Години

Нова тема   Відповісти