Фантастичні звірі і де їх шукати / Fantastic Beasts and Where to Find Them (2016) UHD Remux 2160p 4K HDR H.265 Ukr/Eng | Sub Eng

Нові коментарі

Нова тема   Відповісти
Автор Повідомлення
Argentum 
VIP


З нами з: 25.09.11
Востаннє: 09.07.20
Повідомлень: 256

2019-12-24 13:53  
Фантастичні звірі і де їх шукати / Fantastic Beasts and Where to Find Them (2016) UHD Remux 2160p 4K HDR H.265 Ukr/Eng | Sub Eng

Фантастичні звірі і де їх шукати / Fantastic Beasts and Where to Find Them (2016) UHD Remux 2160p 4K HDR H.265 Ukr/Eng | Sub Eng


Жанр: фентезі, пригодницький
Країна: США, Велика Британія



Кінокомпанія: Warner Bros.
Режисер: Девід Єйтс
Актори: Едді Редмейн, Кетрін Вотерстон, Елісон Судол, Ден Фоглер, Саманта Мортон, Колін Фаррелл, Езра Міллер, Джонні Депп, Джон Войт, Рон Перлман та інші.

Сюжет:
Нью-Йорк 20-х років ХХ століття. Головний герой – Ньют Скамандер, який приїхав в місто спеціально для того, щоб відвідати таємну спільноту чарівниць та чарівників. Він – відомий дослідник і письменник, а підручники його авторства входять до обов'язкової програми Гоґвортсу – знаменитої школи магії. Саме про підручник "Фантастичні звірі і де їх шукати" нам розповідає фільм. Ця книга є переліком фантастичних тварин і містить їх опис. Пориньте у цей чарівний світ!


Тривалість: 02:12:52
Якість: 4K UltraHD Remux 2160p

Відео:
кодек: H.265 (HEVC)
розмір кадру: 3840 х 2160
бітрейт: 49,9 Мб/с
бітова глибина: 10 біт
кольоровий простір: BT.2020 (HDR)

Увага! Перед завантаженням переконайтесь, що ваш пристрій відтворення (та/або ПЗ) підтримує H.265 (HEVC)

Аудіо # 1:
мова: українська
переклад: професійний дубльований | студія Postmodern
кодек: 5.1
бітрейт: 384 кб/с
Інформація про дубляж

Дубляж виконано студією Postmodern на замовлення Kinomania.

Переклад: Олег Колесніков

Режисер дубляжу: Анна Пащенко

Звукорежисер: Олександр Мостовенко

Ролі дублювали: Олександр Погребняк, Юлія Перенчук, Сергій Солопай, Наталія Денисенко, Андрій Твердак, Олена Узлюк, Андрій Соболєв, Наталія Ярошенко, Борис Георгієвський та інші.
Аудіо # 2:
мова: англійська
переклад: оригінал
кодек: -HD 7.1
бітрейт: 3 702 кб/с

Аудіо # 3:
мова: англійська
переклад: оригінал
кодек: 5.1
бітрейт: 640 кб/с

Субтитри: (форсовані)
мова: українська
тип: програмні (м'які)
формат: *.srt

Субтитри:
мова: англійська
тип: програмні (м'які)
формат: *.srt
Info
General
Unique ID : 629527896513971909761836578768940804 (0x793E1F2411A573E66561E9265FEF04)
Complete name : Fantastic Beasts and Where to Find Them (2016) [Ukr, Eng] Remux HDR 2160p.
Format :
Format version : Version 4
File size : 50.5 GiB
Duration : 2 h 12 min
Overall bit rate mode : Variable
Overall bit rate : 54.4 Mb/s
Movie name : Fantastic Beasts and Where to Find Them (2016)
Encoded date : UTC 2019-12-24 09:18:06
Writing application : v41.0.0 ('Smarra') 64-bit
Writing library : libebml v1.3.9 + v1.5.2
Attachments : 9e4pOupVsgg1jKlGWqhzkYrV2jP.jpg

Video
ID : 1
Format : HEVC
Format/Info : High Efficiency Video Coding
Format profile : Main [email protected]@High
HDR format : SMPTE ST 2086, HDR10 compatible
Codec ID : V_MPEGH/ISO/HEVC
Duration : 2 h 12 min
Bit rate : 49.9 Mb/s
Width : 3 840 pixels
Height : 2 160 pixels
Display aspect ratio : 16:9
Frame rate mode : Constant
Frame rate : 23.976 (24000/1001) FPS
Color space : YUV
Chroma subsampling : 4:2:0 (Type 2)
Bit depth : 10 bits
Bits/(Pixel*Frame) : 0.251
Stream size : 46.3 GiB (92%)
Title : HEVC 3840*2160 HDR10 @ 49.9 Mb/s
Writing library : ATEME Titan File 3.7.8 (4.7.8.0)
Language : Multiple languages
Default : Yes
Forced : Yes
Color range : Limited
Color primaries : BT.2020
Transfer characteristics : PQ
Matrix coefficients : BT.2020 non-constant
Mastering display color primaries : Display P3
Mastering display luminance : min: 0.0050 cd/m2, max: 4000 cd/m2
Maximum Content Light Level : 3173 cd/m2
Maximum Frame-Average Light Level : 484 cd/m2

Audio #1
ID : 2
Format : AC-3
Format/Info : Audio Coding 3
Commercial name : Dolby Digital
Codec ID : A_AC3
Duration : 2 h 12 min
Bit rate mode : Constant
Bit rate : 384 kb/s
Channel(s) : 6 channels
Channel layout : L R C LFE Ls Rs
Sampling rate : 48.0 kHz
Frame rate : 31.250 FPS (1536 SPF)
Compression mode : Lossy
Stream size : 365 MiB (1%)
Title : AC-3 5.1 @ 384 kb/s
Language : Ukrainian
Service kind : Complete Main
Default : Yes
Forced : Yes

Audio #2
ID : 3
Format : XLL
Format/Info : Digital Theater Systems
Commercial name : -HD Master Audio
Codec ID : A_DTS
Duration : 2 h 12 min
Bit rate mode : Variable
Bit rate : 3 702 kb/s
Channel(s) : 8 channels
Channel layout : C L R LFE Lb Rb Lss Rss
Sampling rate : 48.0 kHz
Frame rate : 93.750 FPS (512 SPF)
Bit depth : 24 bits
Compression mode : Lossless
Stream size : 3.44 GiB (7%)
Title : -HD MA 7.1 @ 3 702 kb/s
Language : English
Default : No
Forced : No

Audio #3
ID : 4
Format : AC-3
Format/Info : Audio Coding 3
Commercial name : Dolby Digital
Codec ID : A_AC3
Duration : 2 h 12 min
Bit rate mode : Constant
Bit rate : 448 kb/s
Channel(s) : 6 channels
Channel layout : L R C LFE Ls Rs
Sampling rate : 48.0 kHz
Frame rate : 31.250 FPS (1536 SPF)
Compression mode : Lossy
Stream size : 426 MiB (1%)
Title : AC-3 5.1 @ 640 kb/s
Language : English
Service kind : Complete Main
Default : No
Forced : No

Text #1
ID : 5
Format : UTF-8
Codec ID : S_TEXT/UTF8
Codec ID/Info : UTF-8 Plain Text
Duration : 2 h 2 min
Bit rate : 2 b/s
Count of elements : 40
Stream size : 2.38 KiB (0%)
Title : Forced
Language : Ukrainian
Default : Yes
Forced : Yes

Text #2
ID : 6
Format : UTF-8
Codec ID : S_TEXT/UTF8
Codec ID/Info : UTF-8 Plain Text
Duration : 2 h 1 min
Bit rate : 41 b/s
Count of elements : 1303
Stream size : 37.1 KiB (0%)
Title : Full
Language : English
Default : No
Forced : No

Text #3
ID : 7
Format : UTF-8
Codec ID : S_TEXT/UTF8
Codec ID/Info : UTF-8 Plain Text
Duration : 2 h 2 min
Bit rate : 48 b/s
Count of elements : 1598
Stream size : 43.3 KiB (0%)
Title : SDH
Language : English
Default : No
Forced : No

Menu
00:00:00.000 : :00:00:00.000
00:08:40.270 : :00:08:40.270
00:18:55.718 : :00:18:55.718
00:28:23.660 : :00:28:23.660
00:38:34.187 : :00:38:34.187
00:48:08.594 : :00:48:08.594
00:58:19.246 : :00:58:19.246
01:09:14.692 : :01:09:14.692
01:17:26.392 : :01:17:26.392
01:29:33.660 : :01:29:33.660
01:38:02.085 : :01:38:02.085
01:50:27.871 : :01:50:27.871
01:59:04.471 : :01:59:04.471
02:04:11.944 : :02:04:11.944
Скріншоти







Джерело:
Особиста оцінка: 8 - мені сподобалося


Золотий реліз (завантажене не впливає на рейтинг)
 Трекер:    Зареєстрований   

Завантажити / скачати фільм українською



відео для новачків



 Зареєстрований:   2019-12-24 18:03
 Розмір:   50.51 GB 
 Оцінка фільму:   8.8/10 (Голосів: 9)
   
Інші релізи
   Фантастичні звірі і де їх шукати / Fantastic Beasts and Where to Find Them (2016) 1080p 3D [Half OverUnder] Ukr/Eng | Sub Eng igor911  3 / 0   13.88 GB   2019-12-24 15:37 
   Фантастичні звірі і де їх шукати / Fantastic Beasts and Where to Find Them (2016) 1080p Ukr/Eng | Sub Eng Electroz  6 / 0   14.47 GB   2019-12-18 11:33 
   Фантастичні звірі і де їх шукати / Fantastic Beasts and Where to Find Them (2016) 720p Ukr/Eng | Sub Eng 11FrYkT  9 / 0   4.31 GB   2019-12-18 11:32 
   Фантастичні звірі і де їх шукати / Fantastic Beasts and Where to Find Them (2016) AVC Ukr/Eng | Sub Eng 11FrYkT  17 / 0   2.36 GB   2019-12-18 11:31 
   Фантастичні звірі і де їх шукати / Fantastic Beasts and Where to Find Them (2016) 1080p H.265 Ukr/Eng | Sub Ukr/Eng igor302  23 / 0   4.88 GB   2018-03-16 23:17 
   Фантастичні звірі і де їх шукати / Fantastic Beasts and Where to Find Them (2016) Ukr 5.1| Sub Uk srtr Bochys  2 / 0   426 MB   2017-11-02 11:56 
   Фантастичні звірі і де їх шукати / Fantastic Beasts and Where to Find Them (2016) DVD9 Eng/Cz/Rus/Ukr | Sub Eng/Cz/Est/Latv/Lith/Port/Rus/Ukr Bochys  5 / 0   6.55 GB   2017-10-30 13:03 
   Фантастичні звірі і де їх шукати / Fantastic Beasts and Where to Find Them (2016) 720p-mini (60 fps) Drool  7 / 0   3.65 GB   2017-03-09 17:13 
   Фантастичні звірі і де їх шукати / Fantastic Beasts and Where to Find Them (2016) Remux 1080p Ukr/Eng | Sub Eng staf777  12 / 0   24.15 GB   2017-03-09 12:45 
   Фантастичні звірі і де їх шукати / Fantastic Beasts and Where to Find Them (2016) Covenant  27 / 0   1.45 GB   2017-03-08 14:50 
   Фантастичні звірі і де їх шукати / Fantastic Beasts and Where to Find Them (2016) Ukr/Eng Gelios  17 / 0   2.18 GB   2017-03-08 12:44 
bot 
робот


З нами з: 30.09.07
Востаннє: 26.05.05
Повідомлень: 25021

2019-12-24 13:53  
Тему перенесено з Фільми в HD до форуму Анонси релізів


Argentum

Bochys 
Свій


З нами з: 09.09.10
Востаннє: 12.06.20
Повідомлень: 52

2019-12-24 16:12  
Звук 5.1 звідки?
Argentum 
VIP


З нами з: 25.09.11
Востаннє: 09.07.20
Повідомлень: 256

2019-12-24 17:45  
Bochys написано:
Звук 5.1 звідки?

Дочекайтеся реліза. В описі все буде.

bot 
робот


З нами з: 30.09.07
Востаннє: 26.05.05
Повідомлень: 25021

2019-12-24 18:03  
Тему перенесено з Анонси релізів до форуму Фільми в HD


Argentum

Gingеrbread 
Забанено
Забанено


З нами з: 01.07.19
Востаннє: 02.03.20
Повідомлень: 360

2019-12-24 19:11  
Argentum
товариш мабуть питав чи це з тюнсу 5.1 чи дутий звук з толоки

Argentum 
VIP


З нами з: 25.09.11
Востаннє: 09.07.20
Повідомлень: 256

2019-12-24 19:18  
Gingеrbread написано:
товариш мабуть питав чи це з тюнсу 5.1 чи дутий звук з толоки

Я зрозумів питання тому й порадив дочекатися доки реліз буде перенесено з остаточним оформленням, де все буде вказано в описі, з Анонсів до відповідного розділу.

VOLYMIR 
Свій


З нами з: 15.10.15
Востаннє: 28.06.20
Повідомлень: 55

2019-12-31 23:34  
Я так розумію нормального релізу не буде?
Мій комп не підтримує жоден з запропонованих варіантів(

leicheman 
Відео Гуртом - фільмокрай
Відео Гуртом - фільмокрай


З нами з: 03.07.14
Востаннє: 09.07.20
Повідомлень: 5121

2020-01-01 00:00  
VOLYMIR написано:
нормального релізу не буде?

А пошук для чого? https://toloka.to/tracker.php?nm=Fantastic+Beasts+and+Where+to+Find+Them
Релізи для будь-якого заліза та розміру екрану.

Ваш часовий пояс: GMT + 2 Години

Нова тема   Відповісти