Першому гравцю приготуватися / Ready Player One (2018) 1080p H.265 Ukr/Eng | Sub Eng

Нові коментарі

Нова тема   Відповісти
Автор Повідомлення
Anonymous 







2019-12-24 12:57  
Першому гравцю приготуватися / Ready Player One (2018) 1080p H.265 Ukr/Eng | Sub Eng

Першому гравцю приготуватися / Ready Player One (2018) 1080p H.265 Ukr/Eng | Sub Eng


Жанр: фантастика, бойовик, пригодницький, кіберпанк
Країна: США
Кінокомпанія: Warner Bros. Pictures, DreamWorks SKG, Amblin Entertainment, Village Roadshow Pictures, De Line Pictures
Режисер: Стівен Спілберг / Steven Spielberg
Актори: Тай Шерідан / Tye Sheridan, Олівія Кук / Olivia Cooke, Бен Мендельсон / Ben Mendelsohn, Саймон Пегг / Simon Pegg, Ті Джей Міллер / T.J. Miller, Ліна Вейт / Lena Waithe, Марк Райленс / Mark Rylance, Він Морісакі / Win Morisaki, Філіп Зао / Philip Zhao, Ханна Джон-Кеймен / Hannah John-Kamen та інші

Сюжет:
На дворі 2045 рік. Світ загруз на межі хаосу, адже велика частина населення просто виживає без достатніх коштів для існування. Щоб піти від непривабливої реальності, багато хто проводить час у грандіозному віртуальному ігровому всесвіті - ОАЗІ. Його створив ексцентричний і геніальний мільярдер Джеймс Голлідей. Після своєї смерті він заповів все своє майно (а це півтрильйона доларів і влада над грою) єдиному гравцеві – тому, хто першим добереться до ретельно захованої "пасхалки". Весь світ тепер готовий поборотися за ці неймовірні багатства. До змагання приєднується і звичайний хлопець-сирота Вейд Воттс (Тай Шерідан) і потрапляє у небезпечне полювання на скарб у фантастичному всесвіті таємниць, відкриттів та ризику...

Тривалість: 02:19:58
Якість:

Відео:
кодек: H.265 (HEVC)
розмір кадру: 1920 x 804
бітрейт: 7 459 кб/с
бітова глибина: 10 біт

Увага! Перед завантаженням переконайтесь, що ваш пристрій відтворення (та/або ПЗ) підтримує H.265 (HEVC)

Аудіо # 1:
мова: українська
переклад: професійний дубльований
кодек: AC-3 5.1
бітрейт: 384 кб/с

Аудіо # 2:
мова: англійська
переклад: оригінал
кодек: 5.1
бітрейт: 1510 кб/с

Субтитри # 1: (Forced)
мова: українська
тип: програмні (м'які)
формат: *.srt

Субтитри # 2-4: (Full, SDH, SDH-Colored)
мова: англійська
тип: програмні (м'які)
формат: *.srt


Info
Код:
General
Unique ID                                : 222240468028726522534768475719238184392 (0xA731F50C92F9915A808706DC6A8C6DC8)
Complete name                            : Ready Player One (2018) 1080p H.265 [UKR_ENG] [Hurtom].
Format                                   :
Format version                           : Version 4
File size                                : 9.15 GiB
Duration                                 : 2 h 19 min
Overall bit rate                         : 9 354 kb/s
Movie name                               : Першому гравцю приготуватися / Ready Player One (2018)]
Encoded date                             : UTC 2019-12-24 09:21:49
Writing application                      : v20.0.0 ('I Am The Sun') 64-bit
Writing library                          : libebml v1.3.5 + v1.4.8
Cover                                    : Yes
Attachments                              : Cover.jpg

Video
ID                                       : 1
Format                                   : HEVC
Format/Info                              : High Efficiency Video Coding
Format profile                           : Main [email protected]@High
Codec ID                                 : V_MPEGH/ISO/HEVC
Duration                                 : 2 h 19 min
Bit rate                                 : 7 458 kb/s
Width                                    : 1 920 pixels
Height                                   : 804 pixels
Display aspect ratio                     : 2.40:1
Frame rate mode                          : Constant
Frame rate                               : 23.976 (24000/1001) FPS
Color space                              : YUV
Chroma subsampling                       : 4:2:0
Bit depth                                : 10 bits
Bits/(Pixel*Frame)                       : 0.202
Stream size                              : 7.29 GiB (80%)
Title                                    : Першому гравцю приготуватися / Ready Player One (2018)
Writing library                          : x265 2.8+25-0a629ea6036b:[Windows][GCC 8.1.0][64 bit] 10bit
Encoding settings                        : cpuid=1111039 / frame-threads=4 / numa-pools=16 / wpp / no-pmode / no-pme / no-psnr / no-ssim / log-level=2 / input-csp=1 / input-res=1920x804 / interlace=0 / total-frames=201357 / level-idc=41 / high-tier=1 / uhd-bd=0 / ref=5 / no-allow-non-conformance / no-repeat-headers / annexb / no-aud / no-hrd / info / hash=0 / no-temporal-layers / open-gop / min-keyint=23 / keyint=240 / gop-lookahead=0 / bframes=8 / b-adapt=2 / b-pyramid / bframe-bias=0 / rc-lookahead=60 / lookahead-slices=0 / scenecut=40 / radl=0 / no-intra-refresh / ctu=32 / min-cu-size=8 / rect / amp / max-tu-size=32 / tu-inter-depth=3 / tu-intra-depth=3 / limit-tu=1 / rdoq-level=1 / dynamic-rd=0.00 / no-ssim-rd / signhide / no-tskip / nr-intra=0 / nr-inter=0 / no-constrained-intra / no-strong-intra-smoothing / max-merge=3 / limit-refs=1 / limit-modes / me=3 / subme=7 / merange=57 / temporal-mvp / weightp / weightb / no-analyze-src-pics / deblock=-3:-3 / no-sao / no-sao-non-deblock / rd=6 / no-early-skip / rskip / no-fast-intra / no-tskip-fast / no-cu-lossless / no-b-intra / no-splitrd-skip / rdpenalty=0 / psy-rd=2.00 / psy-rdoq=1.00 / no-rd-refine / no-lossless / cbqpoffs=-2 / crqpoffs=-2 / rc=crf / crf=18.0 / qcomp=0.60 / qpstep=4 / stats-write=0 / stats-read=0 / vbv-maxrate=50000 / vbv-bufsize=50000 / vbv-init=0.9 / crf-max=0.0 / crf-min=0.0 / ipratio=1.40 / pbratio=1.30 / aq-mode=1 / aq-strength=1.00 / cutree / zone-count=1 / zones: / start-frame=185935 / end-frame=201357 / qp=35 / no-strict-cbr / qg-size=32 / no-rc-grain / qpmax=69 / qpmin=0 / no-const-vbv / sar=1 / overscan=0 / videoformat=5 / range=0 / colorprim=1 / transfer=1 / colormatrix=1 / chromaloc=0 / display-window=0 / max-cll=0,0 / min-luma=0 / max-luma=1023 / log2-max-poc-lsb=8 / vui-timing-info / vui-hrd-info / slices=1 / no-opt-qp-pps / no-opt-ref-list-length-pps / no-multi-pass-opt-rps / scenecut-bias=0.05 / no-opt-cu-delta-qp / no-aq-motion / no-hdr / no-hdr-opt / no-dhdr10-opt / no-idr-recovery-sei / analysis-reuse-level=5 / scale-factor=0 / refine-intra=0 / refine-inter=0 / refine-mv=0 / no-limit-sao / ctu-info=0 / no-lowpass-dct / refine-mv-type=0 / copy-pic=1 / max-ausize-factor=1.0 / no-dynamic-refine / no-single-sei
Default                                  : Yes
Forced                                   : No
Color range                              : Limited
Color primaries                          : BT.709
Transfer characteristics                 : BT.709
Matrix coefficients                      : BT.709

Audio #1
ID                                       : 2
Format                                   : AC-3
Format/Info                              : Audio Coding 3
Commercial name                          : Dolby Digital
Codec ID                                 : A_AC3
Duration                                 : 2 h 19 min
Bit rate mode                            : Constant
Bit rate                                 : 384 kb/s
Channel(s)                               : 6 channels
Channel layout                           : L R C LFE Ls Rs
Sampling rate                            : 48.0 kHz
Frame rate                               : 31.250 FPS (1536 SPF)
Bit depth                                : 16 bits
Compression mode                         : Lossy
Stream size                              : 384 MiB (4%)
Title                                    : / 5.1 Ch / 384 kbps / ПД / iTunes
Language                                 : Ukrainian
Service kind                             : Complete Main
Default                                  : Yes
Forced                                   : Yes

Audio #2
ID                                       : 3
Format                                   :
Format/Info                              : Digital Theater Systems
Codec ID                                 : A_DTS
Duration                                 : 2 h 19 min
Bit rate mode                            : Constant
Bit rate                                 : 1 509 kb/s
Channel(s)                               : 6 channels
Channel layout                           : C L R Ls Rs LFE
Sampling rate                            : 48.0 kHz
Frame rate                               : 93.750 FPS (512 SPF)
Bit depth                                : 24 bits
Compression mode                         : Lossy
Stream size                              : 1.48 GiB (16%)
Title                                    : / 5.1 Ch / 1509 kbps / Original
Language                                 : English
Default                                  : No
Forced                                   : No

Text #1
ID                                       : 4
Format                                   : UTF-8
Codec ID                                 : S_TEXT/UTF8
Codec ID/Info                            : UTF-8 Plain Text
Duration                                 : 2 h 18 min
Bit rate                                 : 2 b/s
Count of elements                        : 65
Stream size                              : 2.95 KiB (0%)
Title                                    : Forced
Language                                 : Ukrainian
Default                                  : Yes
Forced                                   : Yes

Text #2
ID                                       : 5
Format                                   : UTF-8
Codec ID                                 : S_TEXT/UTF8
Codec ID/Info                            : UTF-8 Plain Text
Duration                                 : 2 h 7 min
Bit rate                                 : 60 b/s
Count of elements                        : 1635
Stream size                              : 56.2 KiB (0%)
Title                                    : Full
Language                                 : English
Default                                  : No
Forced                                   : No

Text #3
ID                                       : 6
Format                                   : UTF-8
Codec ID                                 : S_TEXT/UTF8
Codec ID/Info                            : UTF-8 Plain Text
Duration                                 : 2 h 8 min
Bit rate                                 : 62 b/s
Count of elements                        : 1856
Stream size                              : 59.0 KiB (0%)
Title                                    : SDH
Language                                 : English
Default                                  : No
Forced                                   : No

Text #4
ID                                       : 7
Format                                   : UTF-8
Codec ID                                 : S_TEXT/UTF8
Codec ID/Info                            : UTF-8 Plain Text
Duration                                 : 2 h 8 min
Bit rate                                 : 75 b/s
Count of elements                        : 1856
Stream size                              : 71.1 KiB (0%)
Title                                    : SDH-Colored
Language                                 : English
Default                                  : No
Forced                                   : No

Menu
00:00:00.000                             : en:The Oasis
00:10:08.232                             : en:King Kong's Race
00:20:18.258                             : en:Halliday Journals
00:30:37.627                             : en:i-R0k and the Orb of Osuvox
00:40:38.269                             : en:The Distracted Globe
00:50:08.964                             : en:The Offer
01:03:01.778                             : en:Take the Leap
01:11:55.269                             : en:IRL
01:20:14.726                             : en:Rerouting Ruse
01:30:58.327                             : en:Battle for Oasis
01:43:26.742                             : en:It's Not About Winning..
01:53:02.150                             : en:The Golden Easter Egg
02:04:20.161                             : en:You're the Curator!?
02:09:17.249                             : en:Credits
Світлини




Джерело: &
Особиста оцінка: 10 - без зайвих вагань рекомендую всім!


 Трекер:    Зареєстрований   

Завантажити / скачати фільм українською



відео для новачків



 Зареєстрований:   2019-12-24 12:57
 Розмір:   9.15 GB 
 Оцінка фільму:   9.8/10 (Голосів: 12)
   
Інші релізи
   Першому гравцю приготуватися / Ready Player One (2018) Remux 1080р Ukr/Eng | Sub Eng staf777  3 / 0   24.95 GB   2020-04-21 16:56 
   Першому гравцю приготуватися / Ready Player One (2018) UHD Remux 2160p 4K HDR H.265 Ukr/Eng | Sub Eng Argentum  6 / 0   66.65 GB   2019-12-27 16:46 
   Першому гравцю приготуватися / Ready Player One (2018) igor911  8 / 0   2.18 GB   2019-12-23 18:31 
   Першому гравцю приготуватися / Ready Player One (2018) 720p Ukr/Eng | Sub Eng igor911  8 / 0   6.31 GB   2019-12-23 17:50 
   Першому гравцю приготуватися / Ready Player One (2018) 1080p Ukr/Eng | Sub Eng 11FrYkT  3 / 0   13.5 GB   2019-12-22 21:24 
   Першому гравцю приготуватися / Ready Player One (2018) AVC Ukr/Eng | Sub Eng uafilm.tv  12 / 0   2.85 GB   2019-12-22 21:00 
   Першому гравцю приготуватися / Ready Player One (2018) Український дубляж [5.1 ] mutomba  3 / 0   1.48 GB   2018-10-14 23:10 
   Першому гравцю приготуватися / Ready Player One (2018) 720p-mini (60 fps) Drool  4 / 0   6.05 GB   2018-10-02 17:16 
   Першому гравцю приготуватися / Ready Player One (2018) 1080p 3D [Half OverUnder] Ukr/Eng | Sub Eng QWERTYJJJJJJ  7 / 0   13.53 GB   2018-07-24 15:27 
   Першому гравцю приготуватися / Ready Player One (2018) 1080p H.265 Ukr/Eng | Sub Eng ukr_anonymous  14 / 0   5.7 GB   2018-07-06 17:00 
Ваш часовий пояс: GMT + 2 Години

Нова тема   Відповісти