Хіба я не просила зробити мої Здібності у наступному житті Посередніми?! | Watashi, Nouryoku wa Heikinchi de tte Itta yo ne! (12 з 12) (2019) 720p Jap | sub Ukr / sub Eng

Нові коментарі

Нова тема   Відповісти
Автор Повідомлення
bodja2 
Частий відвідувач


З нами з: 19.05.13
Востаннє: 20.02.20
Повідомлень: 28

2019-12-24 01:17  
Хіба я не просила зробити мої Здібності у наступному житті Посередніми?! | Watashi, Nouryoku wa Heikinchi de tte Itta yo ne! | Didn't I Say to Make My Abilities Average in the Next Life?! | 私、能力は平均値でって言ったよね! (12 з 12) (2019) 720p Jap | sub Ukr / sub Eng

Хіба я не просила зробити мої Здібності у наступному житті Посередніми?! | Watashi, Nouryoku wa Heikinchi de tte Itta yo ne! (12 з 12) (2019) 720p Jap | sub Ukr / sub Eng

Країна: Японія
Рік: 2019(осінь)
Студія: Project No.9
Режисер: Масахіко Оота
Жанри: Комедія, Фентезі, ісекай
Тип: серіал 6.90 (125 голосів)
MyAnimeList
6.97 (8051 голосів)
Джерело: ,
Переклад: K0wbassa

Опис:
Все своє життя Куріхара Місато постійно виділялася і жила без жодних радощів, друзів та навіть розміреного життя. Однак, після раптової смерті(спричиненої вантажівкою) вона звстріла Бога та попросила його зробити її здібності у новому житті посередніми. Але виявилося, що уявлення про посередність у Бога свої. Тож вас чекають пргоди дівчини у фентезі світі зі своїми новими подругами.

Відео:
Тривалість: 1 серія: ~ 24:00 (цілком серій: 12)
Якість: 720p
Відео:
Кодек:
Розмір кадру:1280х720
Бітрейт: 4119 Кбіт/с

Аудіо:
мова: японська
Переклад: оригінал
Кодек:
канали: 2 (стерео)
бітрейт: 128 Кбіт/сек

Субтитри: (авторський переклад)
мова: українська
Тип: вбудовані (м'які)
Формат: .

Субтитри:
мова: англійська
Тип: вбудовані (м'які)
Формат: .
Список серій:
1. Ви сказали, що я потраплю у новий світ
2. Я ж казала, що ми станемо командою!
3. Я ж просила зробити мій випускний простим та банальним!
4. Я ж казала, що це перші кроки багряної клятви!
5. Я ж казала, що розповім передісторію!
6. Я ж просила більше не тягнути мене в ліс!
7. Я ж просила влаштовувати перерву!
8. Я ж казала, що розповім передісторію!
9. Я ж казала, що ми полюватимемо на виверну!
10. Я ж казала, що не варто псувати сюрприз!
11. Я ж казала, що зарозумілість призводить до проблем!
12. Я ж казала, що Багряну клятву ніщо не зупинить!
Скріншоти

Info

General
Unique ID : 318079960026626024295454733905332111845 (0xEF4BF8D330331260BC1F5D4FE3E189E5)
Complete name : D:\Завантаження\[K0wbassa] Watashi, Nouryoku wa Heikinchi de tte Itta yo ne!\[K0wbassa] Watashi, Nouryoku wa Heikinchi de tte Itta yo ne! - 01 [720p].
Format :
Format version : Version 4 / Version 2
File size : 697 MiB
Duration : 23 min 40 s
Overall bit rate : 4 119 kb/s
Encoded date : UTC 2019-12-07 11:08:51
Writing application : v27.0.0 ('Metropolis') 64-bit
Writing library : libebml v1.3.6 + v1.4.9
Attachments : OpenSans-Semibold.ttf

Video
ID : 1
Format : AVC
Format/Info : Advanced Video Codec
Format profile : [email protected]
Format settings, CABAC : Yes
Format settings, ReFrames : 6 frames
Codec ID : V_MPEG4/ISO/AVC
Duration : 23 min 40 s
Bit rate : 4 000 kb/s
Width : 1 280 pixels
Height : 720 pixels
Display aspect ratio : 16:9
Frame rate mode : Constant
Frame rate : 23.976 (24000/1001) FPS
Color space : YUV
Chroma subsampling : 4:2:0
Bit depth : 8 bits
Scan type : Progressive
Bits/(Pixel*Frame) : 0.181
Stream size : 675 MiB (97%)
Writing library : core 142
Encoding settings : cabac=1 / ref=6 / deblock=1:1:1 / analyse=0x3:0x113 / me=umh / subme=8 / psy=1 / psy_rd=0.40:0.00 / mixed_ref=1 / me_range=16 / chroma_me=1 / trellis=1 / 8x8dct=1 / cqm=0 / deadzone=21,11 / fast_pskip=1 / chroma_qp_offset=-2 / threads=10 / lookahead_threads=1 / sliced_threads=0 / nr=0 / decimate=1 / interlaced=0 / bluray_compat=0 / constrained_intra=0 / bframes=0 / weightp=2 / keyint=96 / keyint_min=48 / scenecut=40 / intra_refresh=0 / rc_lookahead=48 / rc=2pass / mbtree=1 / bitrate=4000 / ratetol=1.0 / qcomp=0.60 / qpmin=0 / qpmax=69 / qpstep=4 / cplxblur=20.0 / qblur=0.5 / vbv_maxrate=6000 / vbv_bufsize=9000 / nal_hrd=none / filler=0 / ip_ratio=1.40 / aq=1:0.60
Default : Yes
Forced : No

Audio
ID : 2
Format :
Format/Info : Advanced Audio Codec
Format profile : LC
Codec ID : A_AAC
Duration : 23 min 40 s
Bit rate : 128 kb/s
Channel(s) : 2 channels
Channel positions : Front: L R
Sampling rate : 44.1 kHz
Frame rate : 43.066 FPS (1024 spf)
Compression mode : Lossy
Stream size : 21.7 MiB (3%)
Language : Japanese
Default : Yes
Forced : No

Text #1
ID : 3
Format :
Codec ID : S_TEXT/
Codec ID/Info : Advanced Sub Station Alpha
Duration : 21 min 48 s
Bit rate : 207 b/s
Count of elements : 464
Compression mode : Lossless
Stream size : 33.1 KiB (0%)
Title : Ukr sub
Language : Ukrainian
Default : Yes
Forced : Yes

Text #2
ID : 4
Format :
Codec ID : S_TEXT/
Codec ID/Info : Advanced Sub Station Alpha
Duration : 22 min 0 s
Bit rate : 202 b/s
Count of elements : 451
Compression mode : Lossless
Stream size : 32.7 KiB (0%)
Language : English
Default : No
Forced : No


Золотий реліз (завантажене не впливає на рейтинг)
 Трекер:    Зареєстрований   

Завантажити / скачати аніме українською



відео для новачків



 Зареєстрований:   2019-12-24 10:17
 Розмір:   8.18 GB 
 Оцінка аніме:   9.8/10 (Голосів: 4)
   
ImfromUkraine 
VIP


З нами з: 18.02.12
Востаннє: 20.02.20
Повідомлень: 345

2019-12-24 20:13  
вона звстріла
а за анiме дякую

Ваш часовий пояс: GMT + 2 Години

Нова тема   Відповісти