Великий Рот (Сезон 3, Серії 1-3) / Big Mouth (Season 3, Episodes 1-3) (2019) 1080p Ukr/Eng

Нові коментарі

Нова тема   Відповісти
Автор Повідомлення
simpsonsua 
Поважний учасник


З нами з: 13.03.18
Востаннє: 22.02.20
Повідомлень: 241

2019-12-24 00:34  
Великий Рот (Сезон 3, Серії 1-3) / Big Mouth (Season 3, Episodes 1-3) (2019) 1080p Ukr/Eng


Великий Рот (Сезон 3, Серії 1-3) / Big Mouth (Season 3, Episodes 1-3) (2019) 1080p Ukr/Eng


Якщо вам сподобалося озвучення мультсеріалу,
то ви можете підтримати нас за посиланням
ТИЦЬ


Жанр: ситуаційна комедія, мультсеріал для дорослих, мелодрама
Країна: США



Кінокомпанія / телеканал: Netflix
Режисери/творці: Джоель Мосер, Браян Френсіс, Майк Л. Мейфілд, Марк Левін
Актори: Нік Крол, Джон Малені, Фред Арісен, Джессі Клейн, Джейсон Манцукас, Джордан Піл, Мая Рудольф, Дженні Слейт, Паула Пел, Ендрю Ренелс.

Сюжет:
Підлітки відкривають для себе дива й жахи статевого дозрівання.


Тривалість: 1 серія: ~ 26 хв. (цілком серій: 3/11)
Перелік серій:

01. Мій пухнастий Валентин (спецвипуск)
02. Дівчата теж зляться
03. Мобуся
04. Епізод 4
05. Епізод 5
06. Епізод 6
07. Епізод 7
08. Епізод 8
09. Епізод 9
10. Епізод 10
11. Епізод 11
Якість: 1080p
Відео:
кодек:
розмір кадру: 1920 x 1080
бітрейт: 5745 кб/с

Аудіо # 1:
мова: українська | "simpsonsua.tv"
озвучення: професійне багатоголосе закадрове
кодек: 5.1
бітрейт: 448 кб/с

Аудіо # 2:
мова: англійська
переклад: оригінал
кодек: E- 5.1
бітрейт: 640 кб/с
Info
Код:
Format                      :
Format version              : Version 4
File size                   : 1.02 GiB
Duration                    : 30 min 6 s
Overall bit rate mode       : Variable
Overall bit rate            : 4 849 kb/s
Movie name                  : Великий Рот / Big Mouth - S03E02 (2019) 1080p [Ukr.Eng] [simpsonsua.tv]
Encoded date                : UTC 2020-02-14 15:41:05
Writing application         : v6.8.0 ('Theme for Great Cities') 32bit built on Mar  2 2014 21:27:07
Writing library             : libebml v1.3.0 + v1.4.1
Cover                       : Yes
Attachments                 : cover.png

Video
ID                          : 1
Format                      : AVC
Format/Info                 : Advanced Video Codec
Format profile              : [email protected]
Format settings             : CABAC / 3 Ref Frames
Format settings, CABAC      : Yes
Format settings, Reference  : 3 frames
Codec ID                    : V_MPEG4/ISO/AVC
Duration                    : 30 min 6 s
Bit rate mode               : Variable
Bit rate                    : 3 830 kb/s
Maximum bit rate            : 5 745 kb/s
Width                       : 1 920 pixels
Height                      : 1 080 pixels
Display aspect ratio        : 16:9
Frame rate mode             : Constant
Frame rate                  : 23.976 (24000/1001) FPS
Color space                 : YUV
Chroma subsampling          : 4:2:0
Bit depth                   : 8 bits
Scan type                   : Progressive
Bits/(Pixel*Frame)          : 0.077
Stream size                 : 789 MiB (76%)
Writing library             : core 148 r2715 7e75228
Encoding settings           : cabac=1 / ref=3 / deblock=1:0:0 / analyse=0x1:0x111 / me=umh / subme=10 / psy=1 / psy_rd=1.00:0.00 / mixed_ref=1 / me_range=24 / chroma_me=1 / trellis=2 / 8x8dct=0 / cqm=0 / deadzone=21,11 / fast_pskip=1 / chroma_qp_offset=-2 / threads=8 / lookahead_threads=1 / sliced_threads=0 / nr=0 / decimate=1 / interlaced=0 / bluray_compat=0 / stitchable=1 / constrained_intra=0 / bframes=2 / b_pyramid=0 / b_adapt=2 / b_bias=0 / direct=3 / weightb=1 / open_gop=0 / weightp=2 / keyint=48 / keyint_min=25 / scenecut=0 / intra_refresh=0 / rc_lookahead=48 / rc=2pass / mbtree=1 / bitrate=3830 / ratetol=1.0 / qcomp=0.50 / qpmin=6 / qpmax=51 / qpstep=4 / cplxblur=20.0 / qblur=0.5 / vbv_maxrate=5745 / vbv_bufsize=7660 / nal_hrd=vbr / filler=0 / ip_ratio=1.40 / aq=1:1.00
Default                     : Yes
Forced                      : No

Audio #1
ID                          : 2
Format                      : AC-3
Format/Info                 : Audio Coding 3
Commercial name             : Dolby Digital
Codec ID                    : A_AC3
Duration                    : 30 min 6 s
Bit rate mode               : Constant
Bit rate                    : 448 kb/s
Channel(s)                  : 6 channels
Channel layout              : L R C LFE Ls Rs
Sampling rate               : 48.0 kHz
Frame rate                  : 31.250 FPS (1536 SPF)
Bit depth                   : 16 bits
Compression mode            : Lossy
Stream size                 : 96.5 MiB (9%)
Title                       : Українська
Language                    : Ukrainian
Service kind                : Complete Main
Default                     : Yes
Forced                      : No

Audio #2
ID                          : 3
Format                      : E-AC-3
Format/Info                 : Enhanced AC-3
Commercial name             : Dolby Digital Plus
Codec ID                    : A_EAC3
Duration                    : 30 min 6 s
Bit rate mode               : Constant
Bit rate                    : 640 kb/s
Channel(s)                  : 6 channels
Channel layout              : L R C LFE Ls Rs
Sampling rate               : 48.0 kHz
Frame rate                  : 31.250 FPS (1536 SPF)
Compression mode            : Lossy
Stream size                 : 138 MiB (13%)
Title                       : English
Language                    : English
Service kind                : Complete Main
Default                     : No
Forced                      : No
Скріншоти:




Озвучено студією сайту:
Ролі озвучили: Роман Чупіс, Олексій Сафін, Влад Ковалевський, Олекса Мельник, Ольга Мотрич, Юлія Малахова.

Якщо вам сподобалося озвучення мультсеріалу,
то ви можете підтримати нас за посиланням
ТИЦЬ


Авторський реліз (завантажувати можна без реєстрації)
 Трекер:    Зареєстрований   

Завантажити / скачати мультфільм українською



відео для новачків



 Зареєстрований:   2020-02-14 21:15
 Розмір:   3.61 GB 
 Оцінка мультсеріалу:   10/10 (Голосів: 1)
 Перекладено та озвучено 1-3 серії.
   
bot 
робот


З нами з: 30.09.07
Востаннє: 26.05.05
Повідомлень: 23354

2019-12-24 00:42  
Тему перенесено з Мультсеріали в HD до форуму Анонси релізів


simpsonsua

bot 
робот


З нами з: 30.09.07
Востаннє: 26.05.05
Повідомлень: 23354

2020-02-14 21:13  
Тему перенесено з Анонси релізів до форуму Мультсеріали в HD


simpsonsua

simpsonsua 
Поважний учасник


З нами з: 13.03.18
Востаннє: 22.02.20
Повідомлень: 241

2020-02-14 21:18  
Переклали та озвучили 1-3 серії.

Бажаємо всім приємного перегляду!

T-Mon 
Попереджень: 1
Попереджень: 1 


З нами з: 30.07.10
Востаннє: 22.02.20
Повідомлень: 99

2020-02-14 22:12  
Так ще ж нема другого сезону наче?
simpsonsua 
Поважний учасник


З нами з: 13.03.18
Востаннє: 22.02.20
Повідомлень: 241

2020-02-14 22:25  
T-Mon написано:
Так ще ж нема другого сезону наче?


Вже майже рік, як озвучено 2-й сезон. Серії доступні до перегляду на нашому сайті. Найближчим часом буде реліз на Гуртом.

T-Mon 
Попереджень: 1
Попереджень: 1 


З нами з: 30.07.10
Востаннє: 22.02.20
Повідомлень: 99

2020-02-14 22:39  
I'm just clueless. Не зважайте. Happy
Ваш часовий пояс: GMT + 2 Години

Нова тема   Відповісти