Місіс Вілсон (Сезон 1) / Mrs Wilson (Season 1) (2018) 1080p Ukr/Eng | sub Eng

Нові коментарі

Нова тема   Відповісти
Автор Повідомлення
Anonymous 







2019-12-22 21:32  
Місіс Вілсон (Сезон 1) / Mrs Wilson (Season 1) (2018) 1080p Ukr/Eng | sub Eng

Місіс Вілсон (Сезон 1) / Mrs Wilson (Season 1) (2018) 1080p Ukr/Eng | sub Eng

Blu-ray

DVD


Жанр: біографічний, драма, детектив
Країна: Велика Британія



Кінокомпанія: Snowed-In Productions, BBC One, Masterpiece
Режисер: Річард Лектон
Актори: Ієн Глен, Кілі Хоуз, Анупам Кхер, Калум Лінч, Фіона Шоу, Рут Вілсон, Отто Фарант, Патрік Кеннеді та інші

Сюжет:
1940-1960 роки, Лондон. Елісон Вілсон - звичайна жінка, дружина письменника-фантаста Алека Вілсона. В одну мить її життя кардинально змінюється, коли раптово помирає її чоловік: на порозі дому Елісон з'являється невідома, яка стверджує, що це вона справжня місіс Вілсон. Потім виявляється, що Алек був геть не письменником, а секретним агентом. Шукаючи правди про чоловіка, Елісон все більше занурюється у вир світу таємниць...


Тривалість: 1 серія: ~60 хв. (цілком серій: 3)
Перелік серій
1. Episode 1
2. Episode 2
3. Episode 3
Якість:
Відео:
кодек:
розмір кадру: 1920 x 1080
бітрейт: 9489 кб/с

Аудіо # 1:
мова: українська
переклад: багатоголосий закадровий
кодек: 5.1
бітрейт: 384 кб/с

Аудіо # 2:
мова: англійська
переклад: оригінал
кодек: 5.1
бітрейт: 1509 кб/с

Джерело озвучення:
DniproFilm

Субтитри:
мова: англійська
тип: програмні (м'які)
формат: *.sub
Info
Код:
General
Unique ID                                : 271942797535527887875078383249622643577 (0xCC964716EA55F16C07F6F9467C453379)
Complete name                            : Mrs Wilson S01E01 (2018) 1080p [Ukr_Eng] [Hurtom].
Format                                   :
Format version                           : Version 4
File size                                : 4.53 GiB
Duration                                 : 56 min 53 s
Overall bit rate                         : 11.4 Mb/s
Movie name                               : Місіс Вілсон (Сезон 1, серія 1) (2018)
Encoded date                             : UTC 2019-12-21 21:17:26
Writing application                      : v30.1.0 ('Forever And More') 64-bit
Writing library                          : libebml v1.3.6 + v1.4.9
Cover                                    : Yes
Attachments                              : cover.jpg

Video
ID                                       : 1
Format                                   : AVC
Format/Info                              : Advanced Video Codec
Format profile                           : [email protected]
Format settings                          : CABAC / 4 Ref Frames
Format settings, CABAC                   : Yes
Format settings, ReFrames                : 4 frames
Codec ID                                 : V_MPEG4/ISO/AVC
Duration                                 : 56 min 53 s
Bit rate                                 : 9 489 kb/s
Width                                    : 1 920 pixels
Height                                   : 1 080 pixels
Display aspect ratio                     : 16:9
Frame rate mode                          : Constant
Frame rate                               : 25.000 FPS
Color space                              : YUV
Chroma subsampling                       : 4:2:0
Bit depth                                : 8 bits
Scan type                                : Progressive
Bits/(Pixel*Frame)                       : 0.183
Stream size                              : 3.77 GiB (83%)
Writing library                          : core 157 r2935 545de2f
Encoding settings                        : cabac=1 / ref=4 / deblock=1:-3:-3 / analyse=0x3:0x113 / me=umh / subme=8 / psy=1 / psy_rd=1.00:0.00 / mixed_ref=1 / me_range=32 / chroma_me=1 / trellis=1 / 8x8dct=1 / cqm=0 / deadzone=21,11 / fast_pskip=1 / chroma_qp_offset=-2 / threads=6 / lookahead_threads=1 / sliced_threads=0 / nr=0 / decimate=1 / interlaced=0 / bluray_compat=0 / constrained_intra=0 / bframes=3 / b_pyramid=2 / b_adapt=2 / b_bias=0 / direct=3 / weightb=1 / open_gop=0 / weightp=2 / keyint=250 / keyint_min=25 / scenecut=40 / intra_refresh=0 / rc_lookahead=50 / rc=2pass / mbtree=1 / bitrate=9489 / ratetol=1.0 / qcomp=0.60 / qpmin=0 / qpmax=69 / qpstep=4 / cplxblur=20.0 / qblur=0.5 / ip_ratio=1.40 / aq=3:0.80
Language                                 : English
Default                                  : Yes
Forced                                   : No

Audio #1
ID                                       : 2
Format                                   : AC-3
Format/Info                              : Audio Coding 3
Commercial name                          : Dolby Digital
Codec ID                                 : A_AC3
Duration                                 : 56 min 53 s
Bit rate mode                            : Constant
Bit rate                                 : 384 kb/s
Channel(s)                               : 6 channels
Channel layout                           : L R C LFE Ls Rs
Sampling rate                            : 48.0 kHz
Frame rate                               : 31.250 FPS (1536 SPF)
Bit depth                                : 16 bits
Compression mode                         : Lossy
Stream size                              : 156 MiB (3%)
Language                                 : Ukrainian
Service kind                             : Complete Main
Default                                  : Yes
Forced                                   : Yes

Audio #2
ID                                       : 3
Format                                   :
Format/Info                              : Digital Theater Systems
Codec ID                                 : A_DTS
Duration                                 : 56 min 52 s
Bit rate mode                            : Constant
Bit rate                                 : 1 509 kb/s
Channel(s)                               : 6 channels
Channel layout                           : C L R Ls Rs LFE
Sampling rate                            : 48.0 kHz
Frame rate                               : 93.750 FPS (512 SPF)
Bit depth                                : 24 bits
Compression mode                         : Lossy
Stream size                              : 614 MiB (13%)
Language                                 : English
Default                                  : No
Forced                                   : No

Text
ID                                       : 4
Format                                   : VobSub
Muxing mode                              : zlib
Codec ID                                 : S_VOBSUB
Codec ID/Info                            : Picture based subtitle format used on DVDs
Duration                                 : 56 min 9 s
Bit rate                                 : 8 794 b/s
Count of elements                        : 672
Stream size                              : 3.53 MiB (0%)
Language                                 : English
Default                                  : Yes
Forced                                   : No

Menu
00:00:00.000                             : en:Chapter 01
00:08:08.600                             : en:Chapter 02
00:20:03.520                             : en:Chapter 03
00:29:17.200                             : en:Chapter 04
00:42:30.400                             : en:Chapter 05
00:56:01.160                             : en:Chapter 06

Скріншоти





Джерело:


Авторський реліз (завантажувати можна без реєстрації)
 Трекер:    Зареєстрований   

Завантажити / скачати серіал українською



відео для новачків



 Зареєстрований:   2019-12-22 21:32
 Розмір:   13.57 GB 
 Оцінка серіалу:   8.2/10 (Голосів: 5)
   
0mage0 
VIP


З нами з: 06.10.15
Востаннє: 02.12.20
Повідомлень: 709

2020-03-04 10:03  
Непогано чувак розважився. Красунчик Happy І найцікавіше те, що це знято за мотивами реальних подій. Символічно також те, що акторка Рут Вілсон грає у фільмі свою справжню бабусю, Елісон Вілсон.
Ваш часовий пояс: GMT + 2 Години

Нова тема   Відповісти